Среда, 18.10.2017, 22:29 Приветствую Вас Гость | RSS
Категории раздела
Blues [5568]
Jazz [451]
Rock [2954]
Funk, Soul [74]
Fusion, Jazz-Rock [275]
Прочее [520]
Lossless [6241]
Наш баннер
Погода в Черновцах
Статистика
Онлайн всего: 1
Гостей: 1
Пользователей: 0

Зарегистрировано: 3248
Новых сегодня: 1
Новых вчера: 2
Новых за неделю: 5
Новых за 30 дней: 19
Сегодня сайт посетили
Сегодня родились

Благотворительная
стимуляция
развития сайта

Z161056227917
R725602230565
U198363340591

Главная » Файлы » Музыка » Blues

Carolyn Wonderland And The Imperial Monkeys - Bursting With Flavor (1994) [flac]
01.10.2013, 03:31
http://s5.hostingkartinok.com/uploads/images/2013/09/23283470b1a0f0cf09ef708a2de2ae33.jpg




Краткое знакомство с альбомом:


Исполнитель: Carolyn Wonderland & The Imperial Monkeys
Альбом: Bursting With Flavor
Год выпуска: 1997
Стиль: General Mainstream Rock
Формат: flac (image, cue, log) / mp3
Битрейт: Lossless / 320kbps
Время звучания: 00:45:54
Размер файла: 328,38 Мb / 113,90 Мb
___________________________

Tracklist:
--------------------------------------
01. Last Living Stranger - 3:52  
02. Harmonicar - 2:50  
03. Stuck In The Road - 3:55  
04. Lowdown - 2:42  
05. Loose Ends - 4:11  
06. Oh Yeah - 3:06  
07. Silver Tongue - 2:42  
08. Jim & Jack - 4:01  
09. Momma Don't Like My Friends - 5:39  
10. It Ain't Me Dammit - 4:24  
11. Darlene - 3:55  
12. Stay - 4:37  

Password in archiv: nota304

[spoiler=Log EAC + AUDIOCHECKER]Exact Audio Copy V1.0 beta 1 from 15. November 2010

Отчёт EAC об извлечении, выполненном 28. сентября 2013, 18:32

Carolyn Wonderland & The Imperial Monkeys / Bursting With Flavor

Дисковод: HL-DT-STDVDRAM GSA-H44N Adapter: 0 ID: 0

Режим чтения : Достоверность
Использование точного потока : Да
Отключение кэша аудио : Да
Использование указателей C2 : Нет

Коррекция смещения при чтении : 667
Способность читать области Lead-in и Lead-out : Нет
Заполнение пропущенных сэмплов тишиной : Да
Удаление блоков с тишиной в начале и конце : Нет
При вычислениях CRC использовались нулевые сэмплы : Да
Интерфейс : Встроенный Win32-интерфейс для Win NT/2000

Выходной формат : Пользовательский кодировщик
Выбранный битрейт : 1024 kBit/s
Качество : Высокий
Добавление ID3-тега : Нет
Утилита сжатия : C:\Program Files\Exact Audio Copy\FLAC\FLAC.EXE
Дополнительные параметры : -6 -V -T "ARTIST=%a" -T "TITLE=%t" -T "ALBUM=%g" -T "DATE=%y" -T "TRACKNUMBER=%n" -T "GENRE=%m" -T "COMMENT=%e" %j--picture="%i"%j %s -o %d

TOC извлечённого CD

Трек | Старт | Длительность | Начальный сектор | Конечный сектор
---------------------------------------------------------------------
1 | 0:00.00 | 3:54.70 | 0 | 17619
2 | 3:54.70 | 2:52.47 | 17620 | 30566
3 | 6:47.42 | 3:57.40 | 30567 | 48381
4 | 10:45.07 | 2:44.17 | 48382 | 60698
5 | 13:29.24 | 4:13.47 | 60699 | 79720
6 | 17:42.71 | 3:08.25 | 79721 | 93845
7 | 20:51.21 | 2:44.10 | 93846 | 106155
8 | 23:35.31 | 4:03.10 | 106156 | 124390
9 | 27:38.41 | 5:41.40 | 124391 | 150005
10 | 33:20.06 | 4:26.62 | 150006 | 170017
11 | 37:46.68 | 3:57.10 | 170018 | 187802
12 | 41:44.03 | 4:38.02 | 187803 | 208654

Характеристики диапазона извлечения и сообщения об ошибках

Выбранный диапазон

Имя файла F:\Carolyn Wonderland\Carolyn Wonderland - Bursting With Flavor (1994)\Carolyn Wonderland & The Imperial Monkeys - Bursting With Flavor.wav

Пиковый уровень 100.0 %
Скорость извлечения 0.6 X
Качество диапазона 99.9 %
CRC копии B884E723
Копирование... OK

Ошибок не произошло

Конец отчёта
=============
AUDIOCHECKER v2.0 beta (build 457) - by Dester - opdester@freemail.hu
~~~~~~~~~~~~~~~~~~~~~~~~~~~~~~~~~~
-=== НЕ РЕДАКТИРУЙТЕ ЭТОТ ФАЙЛ! ===-

Путь: ...\Carolyn Wonderland - Bursting With Flavor (1994)

1 -=- Carolyn Wonderland & The Imperial Monkeys - Bursting With Flavor.flac -=- CDDA (100%)

197399764[/spoiler]
[spoiler=Track, Spectr, Frequency]
     

[/spoiler]

MP3
Доступно только для пользователей




Чтобы скачать данный материал или оставить комментарий Вам необходимо
зарегистрироваться или войти на сайт под своим логином и паролем.


[ Вход ]

[ Регистрация ]
Категория: Blues | Добавил: igoryok63 | Теги: The Imperial Monkeys, Carolyn Wonderland
Просмотров: 592 | | Рейтинг: 0.0/0
Всего комментариев: 0
Форма входа
Логин:
Пароль:
Поиск в заголовках
Поиск
Ссылки
Раздача GOLD-ов для Depositfiles
Copyright MyCorp © 2017