Среда, 16.08.2017, 15:22 Приветствую Вас Гость | RSS
Категории раздела
Blues [5515]
Jazz [448]
Rock [2870]
Funk, Soul [74]
Fusion, Jazz-Rock [275]
Прочее [481]
Lossless [6134]
Наш баннер
Погода в Черновцах
Статистика
Онлайн всего: 1
Гостей: 1
Пользователей: 0

Зарегистрировано: 3207
Новых сегодня: 0
Новых вчера: 0
Новых за неделю: 4
Новых за 30 дней: 11
Сегодня сайт посетили
Сегодня родились

Благотворительная
стимуляция
развития сайта

Z161056227917
R725602230565
U198363340591

Главная » Файлы » Музыка » Blues

Carolyn Wonderland - Bloodless Revolution (2003) [flac]
01.10.2013, 03:16





Краткое знакомство с альбомом:
>

 

Исполнитель: Carolyn Wonderland
Альбом: Bloodless Revolution
Год выпуска: 2003
Стиль: General Mainstream Rock
Формат: flac (image, cue, log) / mp3
Битрейт: Lossless / 320kbps
Время звучания: 00:41:29
Размер файла: 296,73 Мb / 101,91 Мб
___________________________
Tracklist:
--------------------------------------

01. Smile - 03:39
02. This Land - 03:16
03. Annie's Scarlet Letter - 04:23
04. He Said, She Said - 03:23
05. Unbroken - 03:24
06. Judgement Day Blues - 04:26
07. Bloodless Revolution - 04:32
08. Heart - 04:09
09. Homelessness In Austin - 03:57
10. From A Waffle Booth Six - 02:26
11. Driving Into The Sun - 03:49

Password in archiv: nota304

[spoiler=Log EAC + AUDIOCHECKER]Exact Audio Copy V1.0 beta 1 from 15. November 2010

Отчёт EAC об извлечении, выполненном 28. сентября 2013, 15:26

Carolyn Wonderland / Bloodless Revolution

Дисковод: HL-DT-STDVDRAM GSA-H44N Adapter: 0 ID: 0

Режим чтения : Достоверность
Использование точного потока : Да
Отключение кэша аудио : Да
Использование указателей C2 : Нет

Коррекция смещения при чтении : 667
Способность читать области Lead-in и Lead-out : Нет
Заполнение пропущенных сэмплов тишиной : Да
Удаление блоков с тишиной в начале и конце : Нет
При вычислениях CRC использовались нулевые сэмплы : Да
Интерфейс : Встроенный Win32-интерфейс для Win NT/2000

Выходной формат : Пользовательский кодировщик
Выбранный битрейт : 1024 kBit/s
Качество : Высокий
Добавление ID3-тега : Нет
Утилита сжатия : C:\Program Files\Exact Audio Copy\FLAC\FLAC.EXE
Дополнительные параметры : -6 -V -T "ARTIST=%a" -T "TITLE=%t" -T "ALBUM=%g" -T "DATE=%y" -T "TRACKNUMBER=%n" -T "GENRE=%m" -T "COMMENT=%e" %j--picture="%i"%j %s -o %d

TOC извлечённого CD

Трек | Старт | Длительность | Начальный сектор | Конечный сектор
---------------------------------------------------------------------
1 | 0:00.00 | 3:39.45 | 0 | 16469
2 | 3:39.45 | 3:16.17 | 16470 | 31186
3 | 6:55.62 | 4:23.61 | 31187 | 50972
4 | 11:19.48 | 3:24.39 | 50973 | 66311
5 | 14:44.12 | 3:25.45 | 66312 | 81731
6 | 18:09.57 | 4:25.61 | 81732 | 101667
7 | 22:35.43 | 4:31.45 | 101668 | 122037
8 | 27:07.13 | 4:08.06 | 122038 | 140643
9 | 31:15.19 | 3:57.59 | 140644 | 158477
10 | 35:13.03 | 2:26.25 | 158478 | 169452
11 | 37:39.28 | 3:49.29 | 169453 | 186656

Характеристики диапазона извлечения и сообщения об ошибках

Выбранный диапазон

Имя файла F:\Carolyn Wonderland\Carolyn Wonderland - Bloodless Revolution (2003)\Log\Carolyn Wonderland - Bloodless Revolution.wav

Пиковый уровень 97.7 %
Скорость извлечения 0.6 X
Качество диапазона 100.0 %
CRC копии 47C61185
Копирование... OK

Ошибок не произошло

Конец отчёта
================
AUDIOCHECKER v2.0 beta (build 457) - by Dester - opdester@freemail.hu
~~~~~~~~~~~~~~~~~~~~~~~~~~~~~~~~~~
-=== НЕ РЕДАКТИРУЙТЕ ЭТОТ ФАЙЛ! ===-

Путь: ...\Carolyn Wonderland - Bloodless Revolution (2003)

1 -=- Carolyn Wonderland - Bloodless Revolution.flac -=- CDDA (100%)

109022628[/spoiler]
[spoiler=Track, Spectr, Frequency]
     

[/spoiler]

MP3
Доступно только для пользователей




Чтобы скачать данный материал или оставить комментарий Вам необходимо
зарегистрироваться или войти на сайт под своим логином и паролем.


[ Вход ]

[ Регистрация ]
Категория: Blues | Добавил: igoryok63 | Теги: Carolyn Wonderland
Просмотров: 496 | | Рейтинг: 0.0/0
Всего комментариев: 0
Форма входа
Логин:
Пароль:
Поиск в заголовках
Поиск
Ссылки
Раздача GOLD-ов для Depositfiles
Copyright MyCorp © 2017