Среда, 16.08.2017, 15:22 Приветствую Вас Гость | RSS
Категории раздела
Blues [5515]
Jazz [448]
Rock [2870]
Funk, Soul [74]
Fusion, Jazz-Rock [275]
Прочее [481]
Lossless [6134]
Наш баннер
Погода в Черновцах
Статистика
Онлайн всего: 1
Гостей: 1
Пользователей: 0

Зарегистрировано: 3207
Новых сегодня: 0
Новых вчера: 0
Новых за неделю: 4
Новых за 30 дней: 11
Сегодня сайт посетили
Сегодня родились

Благотворительная
стимуляция
развития сайта

Z161056227917
R725602230565
U198363340591

Главная » Файлы » Музыка » Blues

Carolyn Wonderland & The Imperial Monkeys - Play With Matches (1995) [flac]
22.02.2014, 10:06



Краткое знакомство с альбомом:


Исполнитель: Carolyn Wonderland & The Imperial Monkeys
Альбом: Play With Matches
Год выпуска: 1995
Стиль: Blues
Формат: flac (image, cue, log) / mp3
Битрейт: Lossless / 320kbps
Время звучания: 00:52:01
Размер файла: 362,82 Мb / 129,12 Мb
___________________________

Tracklist:
--------------------------------------
01. Quintana - 3:19  
02. Dinosaur - 2:58  
03. Anyway - 4:13  
04. Much Too Much - 4:12  
05. Blue Lights - 4:16  
06. 100 Hands - 4:00  
07. Darlin' Boy - 2:49  
08. Heart Breaker - 3:30  
09. Comfort Table - 4:21  
10. Speak - 2:41  
11. Fright of the Night - 4:29  
12. Monkey Love - 4:04  
13. My Man - 4:06  
14. No Really I Can Drive - 3:03

Password in archive: nota304

[spoiler=Log EAC + AUDIOCHECKER]Exact Audio Copy V1.0 beta 1 from 15. November 2010

Отчёт EAC об извлечении, выполненном 29. сентября 2013, 5:54

Carolyn Wonderland & The Imperial Monkeys / Play With Matches

Дисковод: HL-DT-STDVDRAM GSA-H44N Adapter: 0 ID: 0

Режим чтения : Достоверность
Использование точного потока : Да
Отключение кэша аудио : Да
Использование указателей C2 : Нет

Коррекция смещения при чтении : 667
Способность читать области Lead-in и Lead-out : Нет
Заполнение пропущенных сэмплов тишиной : Да
Удаление блоков с тишиной в начале и конце : Нет
При вычислениях CRC использовались нулевые сэмплы : Да
Интерфейс : Встроенный Win32-интерфейс для Win NT/2000

Выходной формат : Пользовательский кодировщик
Выбранный битрейт : 1024 kBit/s
Качество : Высокий
Добавление ID3-тега : Нет
Утилита сжатия : C:\Program Files\Exact Audio Copy\FLAC\FLAC.EXE
Дополнительные параметры : -6 -V -T "ARTIST=%a" -T "TITLE=%t" -T "ALBUM=%g" -T "DATE=%y" -T "TRACKNUMBER=%n" -T "GENRE=%m" -T "COMMENT=%e" %j--picture="%i"%j %s -o %d

TOC извлечённого CD

Трек | Старт | Длительность | Начальный сектор | Конечный сектор
---------------------------------------------------------------------
1 | 0:00.00 | 3:21.40 | 0 | 15114
2 | 3:21.40 | 3:00.62 | 15115 | 28676
3 | 6:22.27 | 4:15.32 | 28677 | 47833
4 | 10:37.59 | 4:14.17 | 47834 | 66900
5 | 14:52.01 | 4:18.32 | 66901 | 86282
6 | 19:10.33 | 4:02.62 | 86283 | 104494
7 | 23:13.20 | 2:51.10 | 104495 | 117329
8 | 26:04.30 | 3:32.47 | 117330 | 133276
9 | 29:37.02 | 4:24.02 | 133277 | 153078
10 | 34:01.04 | 2:43.55 | 153079 | 165358
11 | 36:44.59 | 4:32.02 | 165359 | 185760
12 | 41:16.61 | 4:06.32 | 185761 | 204242
13 | 45:23.18 | 4:08.32 | 204243 | 222874
14 | 49:31.50 | 3:03.70 | 222875 | 236669

Характеристики диапазона извлечения и сообщения об ошибках

Выбранный диапазон

Имя файла F:\Carolyn Wonderland\Carolyn Wonderland - Play With Matches (1995)\Carolyn Wonderland & The Imperial Monkeys - Play With Matches.wav

Пиковый уровень 99.7 %
Скорость извлечения 0.4 X
Качество диапазона 99.9 %
CRC копии 3DC22957
Копирование... OK

Ошибок не произошло

Конец отчёта
================
AUDIOCHECKER v2.0 beta (build 457) - by Dester - opdester@freemail.hu
~~~~~~~~~~~~~~~~~~~~~~~~~~~~~~~~~~
-=== НЕ РЕДАКТИРУЙТЕ ЭТОТ ФАЙЛ! ===-

Путь: ...\Carolyn Wonderland - Play With Matches (1995)

1 -=- Carolyn Wonderland & The Imperial Monkeys - Play With Matches.flac -=- CDDA (100%)

197000196[/spoiler]
[spoiler=Track, Spectr, Frequency]
     

[/spoiler]

MP3
Доступно только для пользователей




Чтобы скачать данный материал или оставить комментарий Вам необходимо
зарегистрироваться или войти на сайт под своим логином и паролем.


[ Вход ]

[ Регистрация ]
Категория: Blues | Добавил: igoryok63 | Теги: Carolyn Wonderland
Просмотров: 263 | | Рейтинг: 0.0/0
Всего комментариев: 0
Форма входа
Логин:
Пароль:
Поиск в заголовках
Поиск
Ссылки
Раздача GOLD-ов для Depositfiles
Copyright MyCorp © 2017