Вторник, 03.08.2021, 11:39 Приветствую Вас Гость | RSS
Категории раздела
Blues [6697]
Jazz [541]
Rock [4294]
Funk, Soul [131]
Fusion, Jazz-Rock [310]
Прочее [723]
Lossless [9132]
Наш баннер
Статистика
Онлайн всего: 1
Гостей: 1
Пользователей: 0

Зарегистрировано: 2102
Новых сегодня: 0
Новых вчера: 2
Новых за неделю: 10
Новых за 30 дней: 70
Сегодня сайт посетили
Сегодня родились

Благотворительная
стимуляция
развития сайта

Z161056227917
R725602230565
U198363340591

Главная » Файлы » Музыка » Blues

Willie Kent - Comin' Alive (2001) [flac]
29.06.2014, 03:45

Краткое знакомство с альбомом:


Исполнитель: Willie Kent
Альбом: Comin' Alive
Год выпуска: 2001
Стиль: Blues
Формат: flac (image, cue, log) / mp3
Битрейт: Lossless / 320kbps
Время звучания: 01:00:35
Размер файла: 425,80 Мb / 150,28 Мb ( +5% Restoration)
___________________________

Tracklist:
--------------------------------------

01. Lonely Streets - 4:44   
02. Born In The Delta - 8:07   
03. Check It Out - 3:48   
04. Look Like It's Gonna Rain - 4:11   
05. Lonesome Whistle Blow - 5:32   
06. Someone Like You - 4:10   
07. Sittin' Here Thinkin' - 5:37   
08. Bad Luck - 4:49   
09. Don't Tell Me Your Trouble - 4:07   
10. I Can't Stop Lovin You - 6:01   
11. Something New - 3:24   
12. Someone You Should Know - 6:05

Password in archive: nota304

[spoiler=Log EAC + AUDIOCHECKER]Exact Audio Copy V1.0 beta 1 from 15. November 2010 EAC extraction logfile from 29. April 2014, 6:54 Willie Kent / Comin' Alive Used drive : HL-DT-STDVDRAM GSA-H44N Adapter: 0 ID: 0 Read mode : Secure Utilize accurate stream : Yes Defeat audio cache : No Make use of C2 pointers : Yes Read offset correction : 667 Overread into Lead-In and Lead-Out : No Fill up missing offset samples with silence : Yes Delete leading and trailing silent blocks : No Null samples used in CRC calculations : Yes Used interface : Native Win32 interface for Win NT & 2000 Used output format : Пользовательский кодировщик Selected bitrate : 768 kBit/s Quality : High Add ID3 tag : No Command line compressor : C:\Program Files\Exact Audio Copy\FLAC\FLAC.EXE Additional command line options : -6 -V -T "ARTIST=%a" -T "TITLE=%t" -T "ALBUM=%g" -T "DATE=%y" -T "TRACKNUMBER=%n" -T "GENRE=%m" -T "COMMENT=%e" %j--picture="%i"%j %s -o %d TOC of the extracted CD Track | Start | Length | Start sector | End sector --------------------------------------------------------- 1 | 0:00.00 | 4:46.32 | 0 | 21481 2 | 4:46.32 | 8:09.40 | 21482 | 58196 3 | 12:55.72 | 3:51.02 | 58197 | 75523 4 | 16:46.74 | 4:13.55 | 75524 | 94553 5 | 21:00.54 | 5:34.55 | 94554 | 119658 6 | 26:35.34 | 4:12.40 | 119659 | 138598 7 | 30:47.74 | 5:39.62 | 138599 | 164085 8 | 36:27.61 | 4:51.17 | 164086 | 185927 9 | 41:19.03 | 4:09.17 | 185928 | 204619 10 | 45:28.20 | 6:04.02 | 204620 | 231921 11 | 51:32.22 | 3:27.02 | 231922 | 247448 12 | 54:59.24 | 6:05.47 | 247449 | 274870 Range status and errors Selected range Filename F:\Willie Kent\Willie Kent - Comin' Alive (2001)\Willie Kent - Comin' Alive.wav Peak level 98.8 % Extraction speed 2.6 X Range quality 99.9 % Copy CRC 949AE19C Copy OK No errors occurred End of status report ==================== AUDIOCHECKER v2.0 beta (build 457) - by Dester - opdester@freemail.hu ~~~~~~~~~~~~~~~~~~~~~~~~~~~~~~~~~~ -=== НЕ РЕДАКТИРУЙТЕ ЭТОТ ФАЙЛ! ===- Путь: ...\Willie Kent - Comin' Alive (2001) 1 -=- Willie Kent - Comin' Alive.flac -=- CDDA (100%) 114715028[/spoiler]

[spoiler=Track, Spectr, Frequency]      [/spoiler]

MP3

Доступно только для пользователейTurbobit

 






Чтобы скачать данный материал или оставить комментарий Вам необходимо
зарегистрироваться или войти на сайт под своим логином и паролем.


[ Вход ]

[ Регистрация ]
Не забывайте ставить оценки и комментировать материалы.
Ваше мнение и активность мотивирует к новым публикациям
Категория: Blues | Добавил: igoryok63 | Теги: Willie Kent
Просмотров: 279 | | Рейтинг: 0.0/0
Всего комментариев: 0
Форма входа
Логин:
Пароль:
Поиск в заголовках
Поиск
Ссылки
Copyright MyCorp © 2021