Вторник, 03.08.2021, 09:56 Приветствую Вас Гость | RSS
Категории раздела
Blues [6697]
Jazz [541]
Rock [4294]
Funk, Soul [131]
Fusion, Jazz-Rock [310]
Прочее [723]
Lossless [9132]
Наш баннер
Статистика
Онлайн всего: 1
Гостей: 1
Пользователей: 0

Зарегистрировано: 2102
Новых сегодня: 0
Новых вчера: 2
Новых за неделю: 10
Новых за 30 дней: 70
Сегодня сайт посетили
Сегодня родились

Благотворительная
стимуляция
развития сайта

Z161056227917
R725602230565
U198363340591

Главная » Файлы » Музыка » Blues

Willie Kent - Long Way To Ol' Miss (1996) [flac]
29.06.2014, 03:55

Краткое знакомство с альбомом:


Исполнитель: Willie Kent
Альбом: Long Way To Ol' Miss
Год выпуска: 1996
Стиль: Blues
Формат: flac (image, cue, log)
Битрейт: Lossless
Время звучания: 01:03:24
Размер файла: 373,11 Мb ( +5% Restoration)
___________________________

Tracklist:
--------------------------------------

01. Long Way To Ol' Miss - 5:36   
02. Blues In My Bedroom - 4:34   
03. Dirty Works - 5:46   
04. It Ain't Right - 4:59   
05. Ain't Got Long To Stay - 4:47   
06. My Friend - 4:50   
07. Don't Know Much About Love - 5:18   
08. Extension 309 - 2:53   
09. All My Life - 4:49   
10. Ain't No Love In Your Heart - 4:33   
11. Dont' Drive Me Away - 4:43   
12. Black Night - 6:45   
13. What You Doin' To Me - 3:51

Password in archive: nota304

[spoiler=Log EAC + AUDIOCHECKER]Exact Audio Copy V1.0 beta 1 from 15. November 2010 EAC extraction logfile from 30. April 2014, 5:43 Willie Kent / Long Way To Ol' Miss Used drive : HL-DT-STDVDRAM GSA-H44N Adapter: 0 ID: 0 Read mode : Secure Utilize accurate stream : Yes Defeat audio cache : No Make use of C2 pointers : Yes Read offset correction : 667 Overread into Lead-In and Lead-Out : No Fill up missing offset samples with silence : Yes Delete leading and trailing silent blocks : No Null samples used in CRC calculations : Yes Used interface : Native Win32 interface for Win NT & 2000 Used output format : Пользовательский кодировщик Selected bitrate : 768 kBit/s Quality : High Add ID3 tag : No Command line compressor : C:\Program Files\Exact Audio Copy\FLAC\FLAC.EXE Additional command line options : -6 -V -T "ARTIST=%a" -T "TITLE=%t" -T "ALBUM=%g" -T "DATE=%y" -T "TRACKNUMBER=%n" -T "GENRE=%m" -T "COMMENT=%e" %j--picture="%i"%j %s -o %d TOC of the extracted CD Track | Start | Length | Start sector | End sector --------------------------------------------------------- 1 | 0:00.00 | 5:38.47 | 0 | 25396 2 | 5:38.47 | 4:36.32 | 25397 | 46128 3 | 10:15.04 | 5:48.70 | 46129 | 72298 4 | 16:03.74 | 5:01.40 | 72299 | 94913 5 | 21:05.39 | 4:50.02 | 94914 | 116665 6 | 25:55.41 | 4:52.70 | 116666 | 138635 7 | 30:48.36 | 5:20.40 | 138636 | 162675 8 | 36:09.01 | 2:55.10 | 162676 | 175810 9 | 39:04.11 | 4:51.62 | 175811 | 197697 10 | 43:55.73 | 4:35.17 | 197698 | 218339 11 | 48:31.15 | 4:45.55 | 218340 | 239769 12 | 53:16.70 | 6:47.32 | 239770 | 270326 13 | 60:04.27 | 3:51.70 | 270327 | 287721 Range status and errors Selected range Filename F:\Willie Kent\Willie Kent - Long Way To Ol' Miss (1996)\Willie Kent - Long Way To Ol' Miss.wav Peak level 100.0 % Extraction speed 1.6 X Range quality 100.0 % Copy CRC 80696C41 Copy OK No errors occurred End of status report ==================== AUDIOCHECKER v2.0 beta (build 457) - by Dester - opdester@freemail.hu ~~~~~~~~~~~~~~~~~~~~~~~~~~~~~~~~~~ -=== НЕ РЕДАКТИРУЙТЕ ЭТОТ ФАЙЛ! ===- Путь: ...\Willie Kent - Long Way To Ol' Miss (1996) 1 -=- Willie Kent - Long Way To Ol' Miss.flac -=- CDDA (100%) 25608116[/spoiler]

[spoiler=Track, Spectr, Frequency]      [/spoiler]






Чтобы скачать данный материал или оставить комментарий Вам необходимо
зарегистрироваться или войти на сайт под своим логином и паролем.


[ Вход ]

[ Регистрация ]
Не забывайте ставить оценки и комментировать материалы.
Ваше мнение и активность мотивирует к новым публикациям
Категория: Blues | Добавил: igoryok63 | Теги: Willie Kent
Просмотров: 353 | | Рейтинг: 0.0/0
Всего комментариев: 0
Форма входа
Логин:
Пароль:
Поиск в заголовках
Поиск
Ссылки
Copyright MyCorp © 2021