Вторник, 03.08.2021, 10:14 Приветствую Вас Гость | RSS
Категории раздела
Blues [6697]
Jazz [541]
Rock [4294]
Funk, Soul [131]
Fusion, Jazz-Rock [310]
Прочее [723]
Lossless [9132]
Наш баннер
Статистика
Онлайн всего: 1
Гостей: 1
Пользователей: 0

Зарегистрировано: 2102
Новых сегодня: 0
Новых вчера: 2
Новых за неделю: 10
Новых за 30 дней: 70
Сегодня сайт посетили
Сегодня родились

Благотворительная
стимуляция
развития сайта

Z161056227917
R725602230565
U198363340591

Главная » Файлы » Музыка » Blues

Willie Kent & Willie James Lyons - Ghetto (1998) [flac]
29.06.2014, 04:06

Краткое знакомство с альбомом:


Исполнитель: Willie Kent & Willie James Lyons
Альбом: Ghetto
Год выпуска: 1998
Стиль: Blues
Формат: flac (image, cue, log)
Битрейт: Lossless
Время звучания: 01:02:28
Размер файла: 357,78 Мb ( +5% Restoration)
___________________________

Tracklist:
--------------------------------------

01. Little Red Rooster - 4:21   
02. Nineteen Years Old - 4:13   
03. What Will To-morrow Bring - 4:17   
04. I'm Not The Same Person - 5:47   
05. Ghetto - 7:48   
06. Dust My Broom - 3:57   
07. I Wonder Why - 3:13   
08. You Don't Love Me - 4:32   
09. Chili Con Carne - 3:13   
10. Blue Guitar - 5:28   
11. Sweet Home Chicago - 2:59   
12. Bobby's Rock - 4:11   
13. Tell Him He Got To Go - 4:19   
14. Chicken Shack - 4:10

Password in archive: nota304

[spoiler=Log EAC + AUDIOCHECKER]Exact Audio Copy V1.0 beta 1 from 15. November 2010 EAC extraction logfile from 30. April 2014, 7:11 Willie Kent & Willie James Lyons / Ghetto Used drive : HL-DT-STDVDRAM GSA-H44N Adapter: 0 ID: 0 Read mode : Secure Utilize accurate stream : Yes Defeat audio cache : No Make use of C2 pointers : Yes Read offset correction : 667 Overread into Lead-In and Lead-Out : No Fill up missing offset samples with silence : Yes Delete leading and trailing silent blocks : No Null samples used in CRC calculations : Yes Used interface : Native Win32 interface for Win NT & 2000 Used output format : Пользовательский кодировщик Selected bitrate : 768 kBit/s Quality : High Add ID3 tag : No Command line compressor : C:\Program Files\Exact Audio Copy\FLAC\FLAC.EXE Additional command line options : -6 -V -T "ARTIST=%a" -T "TITLE=%t" -T "ALBUM=%g" -T "DATE=%y" -T "TRACKNUMBER=%n" -T "GENRE=%m" -T "COMMENT=%e" %j--picture="%i"%j %s -o %d TOC of the extracted CD Track | Start | Length | Start sector | End sector --------------------------------------------------------- 1 | 0:00.00 | 4:23.47 | 0 | 19771 2 | 4:23.47 | 4:16.02 | 19772 | 38973 3 | 8:39.49 | 4:19.40 | 38974 | 58438 4 | 12:59.14 | 5:49.62 | 58439 | 84675 5 | 18:49.01 | 7:50.25 | 84676 | 119950 6 | 26:39.26 | 3:59.47 | 119951 | 137922 7 | 30:38.73 | 3:15.70 | 137923 | 152617 8 | 33:54.68 | 4:34.55 | 152618 | 173222 9 | 38:29.48 | 3:15.47 | 173223 | 187894 10 | 41:45.20 | 5:30.47 | 187895 | 212691 11 | 47:15.67 | 3:01.55 | 212692 | 226321 12 | 50:17.47 | 4:13.55 | 226322 | 245351 13 | 54:31.27 | 4:21.47 | 245352 | 264973 14 | 58:52.74 | 4:10.70 | 264974 | 283793 Range status and errors Selected range Filename F:\Willie Kent\Willie Kent & Willie James Lyons - Ghetto (1998)\Willie Kent & Willie James Lyons - Ghetto.wav Peak level 100.0 % Extraction speed 1.8 X Range quality 100.0 % Copy CRC 7DD46307 Copy OK No errors occurred End of status report ==================== AUDIOCHECKER v2.0 beta (build 457) - by Dester - opdester@freemail.hu ~~~~~~~~~~~~~~~~~~~~~~~~~~~~~~~~~~ -=== НЕ РЕДАКТИРУЙТЕ ЭТОТ ФАЙЛ! ===- Путь: ...\Willie Kent & Willie James Lyons - Ghetto (1998) 1 -=- Willie Kent & Willie James Lyons - Ghetto.flac -=- CDDA (100%) 63821684[/spoiler]

[spoiler=Track, Spectr, Frequency]      [/spoiler]






Чтобы скачать данный материал или оставить комментарий Вам необходимо
зарегистрироваться или войти на сайт под своим логином и паролем.


[ Вход ]

[ Регистрация ]
Не забывайте ставить оценки и комментировать материалы.
Ваше мнение и активность мотивирует к новым публикациям
Категория: Blues | Добавил: igoryok63 | Теги: Willie Kent, Willie James Lyons
Просмотров: 307 | | Рейтинг: 0.0/0
Всего комментариев: 0
Форма входа
Логин:
Пароль:
Поиск в заголовках
Поиск
Ссылки
Copyright MyCorp © 2021