Четверг, 09.12.2021, 02:06 Приветствую Вас Гость | RSS
Категории раздела
Blues [6746]
Jazz [564]
Rock [4377]
Funk, Soul [136]
Fusion, Jazz-Rock [313]
Прочее [725]
Lossless [9247]
Наш баннер
Статистика
Онлайн всего: 1
Гостей: 1
Пользователей: 0

Зарегистрировано: 2324
Новых сегодня: 2
Новых вчера: 4
Новых за неделю: 10
Новых за 30 дней: 50
Сегодня сайт посетили
Сегодня родились

Благотворительная
стимуляция
развития сайта

Z161056227917
R725602230565
U198363340591

Главная » Файлы » Музыка » Rock

Bob Seger & The Silver Bullet Band - It's A Mystery (1995) [flac]
23.06.2013, 07:48



Краткое знакомство с альбомом:


Исполнитель: Bob Seger & The Silver Bullet Band
Альбом: It's A Mystery
Год выпуска: 1995
Стиль: Classic Rock
Формат: flac (image, cue, log) / mp3
Битрейт: Lossless / 320kbps
Время звучания: 00:49:47
Размер файла: 337,23 Мb / 123,41 Мb
___________________________

Tracklist:
--------------------------------------
01. Rite Of Passage - 3:51  
02. Lock And Load - 4:55  
03. By The River - 3:26  
04. Manhattan - 5:22  
05. I Wonder - 4:06  
06. It's A Mystery - 4:18  
07. Revisionism Street - 3:48  
08. Golden Boy - 2:25  
09. I Can't Save You Angelene - 3:56  
10. 16 Shells From A 30-6 - 4:20  
11. West Of The Moon - 4:37  
12. Hands In The Air - 4:43

Password in archiv: nota304

[spoiler=Log EAC + AUDIOCHECKER]Exact Audio Copy V1.0 beta 1 from 15. November 2010

Отчёт EAC об извлечении, выполненном 9. июня 2013, 14:17

Bob Seger & The Silver Bullet Band / It's A Mystery

Дисковод: HL-DT-STDVDRAM GSA-H44N Adapter: 0 ID: 0

Режим чтения : Достоверность
Использование точного потока : Да
Отключение кэша аудио : Да
Использование указателей C2 : Нет

Коррекция смещения при чтении : 667
Способность читать области Lead-in и Lead-out : Нет
Заполнение пропущенных сэмплов тишиной : Да
Удаление блоков с тишиной в начале и конце : Нет
При вычислениях CRC использовались нулевые сэмплы : Да
Интерфейс : Встроенный Win32-интерфейс для Win NT/2000

Выходной формат : Пользовательский кодировщик
Выбранный битрейт : 1024 kBit/s
Качество : Высокий
Добавление ID3-тега : Нет
Утилита сжатия : C:\Program Files\Exact Audio Copy\FLAC\FLAC.EXE
Дополнительные параметры : -6 -V -T "ARTIST=%a" -T "TITLE=%t" -T "ALBUM=%g" -T "DATE=%y" -T "TRACKNUMBER=%n" -T "GENRE=%m" -T "COMMENT=%e" %j--picture="%i"%j %s -o %d

TOC извлечённого CD

Трек | Старт | Длительность | Начальный сектор | Конечный сектор
---------------------------------------------------------------------
1 | 0:00.00 | 3:53.20 | 0 | 17494
2 | 3:53.20 | 4:57.40 | 17495 | 39809
3 | 8:50.60 | 3:28.14 | 39810 | 55423
4 | 12:18.74 | 5:24.64 | 55424 | 79787
5 | 17:43.63 | 4:08.51 | 79788 | 98438
6 | 21:52.39 | 4:20.43 | 98439 | 117981
7 | 26:13.07 | 3:50.36 | 117982 | 135267
8 | 30:03.43 | 2:27.26 | 135268 | 146318
9 | 32:30.69 | 3:58.41 | 146319 | 164209
10 | 36:29.35 | 4:22.40 | 164210 | 183899
11 | 40:52.00 | 4:39.24 | 183900 | 204848
12 | 45:31.24 | 4:43.62 | 204849 | 226135

Характеристики диапазона извлечения и сообщения об ошибках

Выбранный диапазон

Имя файла F:\Bob Seger\Flac\Bob Seger & The Silver Bullet Band - It's A Mystery (1995)\Bob Seger & The Silver Bullet Band - It's A Mystery.wav

Пиковый уровень 100.0 %
Скорость извлечения 0.6 X
Качество диапазона 99.9 %
CRC копии 24FF8B7B
Копирование... OK

Ошибок не произошло

Конец отчёта
=======================
AUDIOCHECKER v2.0 beta (build 457) - by Dester - opdester@freemail.hu
~~~~~~~~~~~~~~~~~~~~~~~~~~~~~~~~~~
-=== НЕ РЕДАКТИРУЙТЕ ЭТОТ ФАЙЛ! ===-

Путь: ...\Bob Seger & The Silver Bullet Band - It's A Mystery (1995)

1 -=- Bob Seger & The Silver Bullet Band - It's A Mystery.flac -=- CDDA (100%)

223427668[/spoiler]
[spoiler=Track, Spectr, Frequency]
     

[/spoiler]

MP3
Доступно только для пользователей





Чтобы скачать данный материал или оставить комментарий Вам необходимо
зарегистрироваться или войти на сайт под своим логином и паролем.


[ Вход ]

[ Регистрация ]
Не забывайте ставить оценки и комментировать материалы.
Ваше мнение и активность мотивирует к новым публикациям
Категория: Rock | Добавил: igoryok63 | Теги: Bob Seger
Просмотров: 465 | | Рейтинг: 0.0/0
Всего комментариев: 0
Форма входа
Логин:
Пароль:
Поиск в заголовках
Поиск
Ссылки
Copyright MyCorp © 2021