Четверг, 09.12.2021, 03:56 Приветствую Вас Гость | RSS
Категории раздела
Blues [6746]
Jazz [564]
Rock [4377]
Funk, Soul [136]
Fusion, Jazz-Rock [313]
Прочее [725]
Lossless [9247]
Наш баннер
Статистика
Онлайн всего: 1
Гостей: 1
Пользователей: 0

Зарегистрировано: 2324
Новых сегодня: 2
Новых вчера: 4
Новых за неделю: 10
Новых за 30 дней: 50
Сегодня сайт посетили
Сегодня родились

Благотворительная
стимуляция
развития сайта

Z161056227917
R725602230565
U198363340591

Главная » Файлы » Музыка » Rock

Eloy - Rarities (1991) [flac]
12.04.2014, 07:43

Краткое знакомство с альбомом:

Исполнитель: Eloy
Альбом: Rarities
Год выпуска: 1991
Стиль: Progressive Rock
Формат: flac (image, cue, log) / mp3
Битрейт: Lossless / 320kbps
Время звучания: 00:45:19
Размер файла: 287,24 Мb / 112,56 Мb
___________________________

Tracklist:
--------------------------------------

01. Daybreak - 3:39   
02. On the Road - 2:31   
03. Child Migration - 4:03   
04. Let The Sun Rise In Your Brain - 3:27   
05. Silhouette - 3:29   
06. Horizons - 3:19   
07. Wings Of Vision - 3:51   
08. Sunset - 2:57   
09. Time To Turn - 4:34   
10. Through A Somber Galaxy - 5:16   
11. The Stranger - 3:59   
12. Wings of Vision (12 Inch Version) - 4:14

Password in archive: nota304

[spoiler=Log EAC + AUDIOCHECKER]Exact Audio Copy V1.0 beta 1 from 15. November 2010 Отчёт EAC об извлечении, выполненном 16. ноября 2013, 12:31 Eloy / Rarities Дисковод: HL-DT-STDVDRAM GSA-H44N Adapter: 0 ID: 0 Режим чтения : Достоверность Использование точного потока : Да Отключение кэша аудио : Да Использование указателей C2 : Нет Коррекция смещения при чтении : 667 Способность читать области Lead-in и Lead-out : Нет Заполнение пропущенных сэмплов тишиной : Да Удаление блоков с тишиной в начале и конце : Нет При вычислениях CRC использовались нулевые сэмплы : Да Интерфейс : Встроенный Win32-интерфейс для Win NT/2000 Выходной формат : Пользовательский кодировщик Выбранный битрейт : 1024 kBit/s Качество : Высокий Добавление ID3-тега : Нет Утилита сжатия : C:\Program Files\Exact Audio Copy\FLAC\FLAC.EXE Дополнительные параметры : -6 -V -T "ARTIST=%a" -T "TITLE=%t" -T "ALBUM=%g" -T "DATE=%y" -T "TRACKNUMBER=%n" -T "GENRE=%m" -T "COMMENT=%e" %j--picture="%i"%j %s -o %d TOC извлечённого CD Трек | Старт | Длительность | Начальный сектор | Конечный сектор --------------------------------------------------------------------- 1 | 0:00.00 | 3:40.45 | 0 | 16544 2 | 3:40.45 | 2:33.49 | 16545 | 28068 3 | 6:14.19 | 4:05.21 | 28069 | 46464 4 | 10:19.40 | 3:29.65 | 46465 | 62204 5 | 13:49.30 | 3:31.17 | 62205 | 78046 6 | 17:20.47 | 3:21.54 | 78047 | 93175 7 | 20:42.26 | 3:52.72 | 93176 | 110647 8 | 24:35.23 | 2:59.42 | 110648 | 124114 9 | 27:34.65 | 4:36.16 | 124115 | 144830 10 | 32:11.06 | 5:18.63 | 144831 | 168743 11 | 37:29.69 | 4:01.39 | 168744 | 186857 12 | 41:31.33 | 4:14.66 | 186858 | 205973 Характеристики диапазона извлечения и сообщения об ошибках Выбранный диапазон Имя файла F:\Eloy\Eloy - Rarities (1991)\Eloy - Rarities.wav Пиковый уровень 89.7 % Скорость извлечения 0.6 X Качество диапазона 100.0 % CRC копии B4E57142 Копирование... OK Ошибок не произошло Конец отчёта ================ AUDIOCHECKER v2.0 beta (build 457) - by Dester - opdester@freemail.hu ~~~~~~~~~~~~~~~~~~~~~~~~~~~~~~~~~~ -=== НЕ РЕДАКТИРУЙТЕ ЭТОТ ФАЙЛ! ===- Путь: ...\Eloy - Rarities (1991) 1 -=- Eloy - Rarities.flac -=- CDDA (100%) 80526228[/spoiler]

[spoiler=Track, Spectr, Frequency]   
[/spoiler]

MP3

Доступно только для пользователей






Чтобы скачать данный материал или оставить комментарий Вам необходимо
зарегистрироваться или войти на сайт под своим логином и паролем.


[ Вход ]

[ Регистрация ]
Не забывайте ставить оценки и комментировать материалы.
Ваше мнение и активность мотивирует к новым публикациям
Категория: Rock | Добавил: igoryok63 | Теги: Eloy
Просмотров: 554 | | Рейтинг: 0.0/0
Всего комментариев: 0
Форма входа
Логин:
Пароль:
Поиск в заголовках
Поиск
Ссылки
Copyright MyCorp © 2021