Воскресенье, 28.11.2021, 07:05 Приветствую Вас Гость | RSS
Категории раздела
Blues [6745]
Jazz [563]
Rock [4376]
Funk, Soul [135]
Fusion, Jazz-Rock [312]
Прочее [725]
Lossless [9245]
Наш баннер
Статистика
Онлайн всего: 1
Гостей: 1
Пользователей: 0

Зарегистрировано: 2308
Новых сегодня: 1
Новых вчера: 3
Новых за неделю: 12
Новых за 30 дней: 63
Сегодня сайт посетили
Сегодня родились

Благотворительная
стимуляция
развития сайта

Z161056227917
R725602230565
U198363340591

Главная » Файлы » Музыка » Rock

Shocking Blue - The Singles A's & B's (1997) [flac]
30.06.2013, 06:43



Краткое знакомство с альбомом:


Исполнитель: Shocking Blue
Альбом: The Singles  A's & B's
Год выпуска: 1997
Стиль: Rock
Формат: flac (image, cue, log) / mp3
Битрейт: Lossless / 320kbps
Время звучания: 02:21:06
Размер файла: 952,69 Мb / 345,36 Мb
___________________________

Tracklist:
--------------------------------------
CD1
01. Venus (A Side PE 22.015-G) (1969) - 3:01  
02. Mighty Joe (A Side PE 22.029-G) (1970) - 3:08  
03. Send Me A Postcard (A Side PE 22.004-G) (1969) - 2:39  
04. Long And Lonesome Road (A Side PE 22.007-G) (1969) - 2:48  
05. Never Marry A Railroad Man (A Side PE 22.040-G) (1970) - 3:04  
06. Ink Pot (A Side PE 22.604-G) (1972) - 2:39  
07. Rock In The Sea (A Side PE 22.059-G) (1972) - 2:57  
08. Dream On Dreamer (A Side Polydor 2001.504) (1974) - 2:49  
09. Hello Darkness (A Side PE 22.045-G) (1970) - 2:54  
10. Shocking You (A Side PE 22.050-G) (1971) - 3:00  
11. Sally Was A Good Old Girl (A Side UK Penny F.PEN 744) (1969) - 3:28  
12. Blossom Lady (A Side PE 22.O53-G) (1971) - 3:34  
13. Out Of Sight Out Of Mind (A Side PE 22.055-G) (1971) - 2:46  
14. Eve And The Apple (A Side PE 22.066-G) (1972) - 2:40  
15. Let Me Carry Your Bag (A Side PE 22.068-G) (1973) - 3:27  
16. Oh Lord (A Side PE 22.741-G) (1973) - 2:29  
17. This America (A Side PE 22.812-G) (1974) - 2:59  
18. Good Times (A Side PE 22.846-G) (1974) - 3:26  
19. Gonna Sing Me A Song (A Side PE 22.846-G) (1975) - 2:43  
20. The Jury And The Judge (A Side Polydor 885.115-7) (1986) - 3:46  
21. Body And Soul (A Side Red Bullet RB 8.255) (1994) - 3:46  
22. Love Is In The Air (A Side Polydor S 1248) (1967) - 2:38  
23. Lucy Brown Is Back In Town (A Side PE 22.001) (1968) - 2:53

CD2
01. Roll Engine Roll (B Side PE 22.040-G) (1970) - 3:15  
02. Pickin' Tomatoes (B Side PE 22.045-G) (1970) - 3:20  
03. Waterloo (B Side PE 22.050-G) - 3:25  
04. Harley Davidson (B Side PE 22.004-G) (1969) - 2:38  
05. Fireball Of Love (B Side PE 22.007-G) (1969) - 2:59  
06. Hot Sand (B Side PE 22.015-G) - 2:38  
07. Wild Wind (B Side PE 22.029-G) - 2:12  
08. Keep It If You Want It (B Side Metronome - Promo Only) (1970) - 2:53  
09. Give My Love To The Sunrise (B Side PE 22.604-G) (1972) - 2:26  
10. I Saw You In June (B Side PE 22.608-G) (1973) - 2:23  
11. Is This A Dream (B Side PE 22.053-G) (1971) - 3:46  
12. I Like You (B Side PE 22.055-G) (1971) - 2:12  
13. Broken Heart (B Side PE 22.059-G) (1972) - 2:24  
14. When I Was A Girl (B Side PE 22.066-G) (1972) - 2:27  
15. In My Time Of Dying (B Side Polydor 2001.447) (1973) - 3:39  
16. Everything That's Mine (B Side PE 22.741-G) (1973) - 3:29  
17. Where The Picknick Was (B Side Polydor 2001.504) (1974) - 3:20  
18. I Won't Be Lonely Long (B Side PE 22.812-G) (1974) - 2:59  
19. Come My Way (B Side PE 22.846-G) (1974) - 3:20  
20. Get It On (B Side Decca 6.11714) (1975) - 3:12  
21. I Am Hanging On To Love (B Side Polydor 885.115-7) (1986) - 2:25  
22. Angel (B Side Red Bullet RB 8.225) (1994) - 3:40  
23. What You Gonna Do (B Side Polydor S 1248) (1967) - 2:18  
24. Fix Your Hair Darling (B Side PE 22.001-G) (1968) - 2:19  

[spoiler=CD1 Log EAC + AUDIOCHECKER]Exact Audio Copy V1.0 beta 1 from 15. November 2010

Отчёт EAC об извлечении, выполненном 31. мая 2013, 8:36

Shocking Blue / Singles A's and B's [disk 1]

Дисковод: HL-DT-STDVDRAM GSA-H44N Adapter: 0 ID: 0

Режим чтения : Достоверность
Использование точного потока : Да
Отключение кэша аудио : Да
Использование указателей C2 : Нет

Коррекция смещения при чтении : 667
Способность читать области Lead-in и Lead-out : Нет
Заполнение пропущенных сэмплов тишиной : Да
Удаление блоков с тишиной в начале и конце : Нет
При вычислениях CRC использовались нулевые сэмплы : Да
Интерфейс : Встроенный Win32-интерфейс для Win NT/2000

Выходной формат : Пользовательский кодировщик
Выбранный битрейт : 1024 kBit/s
Качество : Высокий
Добавление ID3-тега : Нет
Утилита сжатия : C:\Program Files\Exact Audio Copy\FLAC\FLAC.EXE
Дополнительные параметры : -6 -V -T "ARTIST=%a" -T "TITLE=%t" -T "ALBUM=%g" -T "DATE=%y" -T "TRACKNUMBER=%n" -T "GENRE=%m" -T "COMMENT=%e" %j--picture="%i"%j %s -o %d

TOC извлечённого CD

Трек | Старт | Длительность | Начальный сектор | Конечный сектор
---------------------------------------------------------------------
1 | 0:00.00 | 3:03.02 | 0 | 13726
2 | 3:03.02 | 3:10.62 | 13727 | 28038
3 | 6:13.64 | 2:41.02 | 28039 | 40115
4 | 8:54.66 | 2:50.55 | 40116 | 52920
5 | 11:45.46 | 3:06.55 | 52921 | 66925
6 | 14:52.26 | 2:41.32 | 66926 | 79032
7 | 17:33.58 | 2:59.40 | 79033 | 92497
8 | 20:33.23 | 2:51.17 | 92498 | 105339
9 | 23:24.40 | 2:56.10 | 105340 | 118549
10 | 26:20.50 | 3:02.10 | 118550 | 132209
11 | 29:22.60 | 3:30.17 | 132210 | 147976
12 | 32:53.02 | 3:36.55 | 147977 | 164231
13 | 36:29.57 | 2:48.25 | 164232 | 176856
14 | 39:18.07 | 2:42.47 | 176857 | 189053
15 | 42:00.54 | 3:29.10 | 189054 | 204738
16 | 45:29.64 | 2:31.70 | 204739 | 216133
17 | 48:01.59 | 3:01.25 | 216134 | 229733
18 | 51:03.09 | 3:28.10 | 229734 | 245343
19 | 54:31.19 | 2:45.32 | 245344 | 257750
20 | 57:16.51 | 3:48.47 | 257751 | 274897
21 | 61:05.23 | 3:48.25 | 274898 | 292022
22 | 64:53.48 | 2:40.32 | 292023 | 304054
23 | 67:34.05 | 2:53.55 | 304055 | 317084

Характеристики диапазона извлечения и сообщения об ошибках

Выбранный диапазон

Имя файла F:\Shocking Blue\Shocking Blue - The Singles A's & B's (1997)\CD1\Shocking Blue - Singles A's and B's [disk 1].wav

Пиковый уровень 100.0 %
Скорость извлечения 0.3 X
Качество диапазона 100.0 %
CRC копии A2DBCE93
Копирование... OK

Ошибок не произошло

Конец отчёта
=======================
AUDIOCHECKER v2.0 beta (build 457) - by Dester - opdester@freemail.hu
~~~~~~~~~~~~~~~~~~~~~~~~~~~~~~~~~~
-=== НЕ РЕДАКТИРУЙТЕ ЭТОТ ФАЙЛ! ===-

Путь: ...\CD1

1 -=- Shocking Blue - Singles A's and B's [disk 1].flac -=- CDDA (100%)

118074100[/spoiler]
[spoiler=CD1 Track, Spectr, Frequency]
     

[/spoiler]

[spoiler=CD2 Log EAC + AUDIOCHECKER]Exact Audio Copy V1.0 beta 1 from 15. November 2010

Отчёт EAC об извлечении, выполненном 2. июня 2013, 13:36

Shocking Blue / Singles A's and B's [disk 2]

Дисковод: ASUS DRW-24B5ST Adapter: 4 ID: 0

Режим чтения : Достоверность
Использование точного потока : Да
Отключение кэша аудио : Нет
Использование указателей C2 : Нет

Коррекция смещения при чтении : 6
Способность читать области Lead-in и Lead-out : Нет
Заполнение пропущенных сэмплов тишиной : Да
Удаление блоков с тишиной в начале и конце : Нет
При вычислениях CRC использовались нулевые сэмплы : Да
Интерфейс : Встроенный Win32-интерфейс для Win NT/2000

Выходной формат : Пользовательский кодировщик
Выбранный битрейт : 1024 kBit/s
Качество : Высокий
Добавление ID3-тега : Нет
Утилита сжатия : C:\Program Files\Exact Audio Copy\FLAC\FLAC.EXE
Дополнительные параметры : -6 -V -T "ARTIST=%a" -T "TITLE=%t" -T "ALBUM=%g" -T "DATE=%y" -T "TRACKNUMBER=%n" -T "GENRE=%m" -T "COMMENT=%e" %j--picture="%i"%j %s -o %d

TOC извлечённого CD

Трек | Старт | Длительность | Начальный сектор | Конечный сектор
---------------------------------------------------------------------
1 | 0:00.00 | 3:17.47 | 0 | 14821
2 | 3:17.47 | 3:22.17 | 14822 | 29988
3 | 6:39.64 | 3:27.32 | 29989 | 45545
4 | 10:07.21 | 2:40.62 | 45546 | 57607
5 | 12:48.08 | 3:02.02 | 57608 | 71259
6 | 15:50.10 | 2:40.10 | 71260 | 83269
7 | 18:30.20 | 2:14.47 | 83270 | 93366
8 | 20:44.67 | 2:55.70 | 93367 | 106561
9 | 23:40.62 | 2:28.10 | 106562 | 117671
10 | 26:08.72 | 2:25.70 | 117672 | 128616
11 | 28:34.67 | 3:48.47 | 128617 | 145763
12 | 32:23.39 | 2:14.02 | 145764 | 155815
13 | 34:37.41 | 2:26.32 | 155816 | 166797
14 | 37:03.73 | 2:29.02 | 166798 | 177974
15 | 39:33.00 | 3:41.62 | 177975 | 194611
16 | 43:14.62 | 3:31.70 | 194612 | 210506
17 | 46:46.57 | 3:22.70 | 210507 | 225726
18 | 50:09.52 | 3:01.25 | 225727 | 239326
19 | 53:11.02 | 3:22.55 | 239327 | 254531
20 | 56:33.57 | 3:14.70 | 254532 | 269151
21 | 59:48.52 | 2:27.40 | 269152 | 280216
22 | 62:16.17 | 3:42.40 | 280217 | 296906
23 | 65:58.57 | 2:20.47 | 296907 | 307453
24 | 68:19.29 | 2:19.40 | 307454 | 317918

Характеристики диапазона извлечения и сообщения об ошибках

Выбранный диапазон

Имя файла F:\Shocking Blue\Shocking Blue - The Singles A's & B's (1997)\CD2\Shocking Blue - Singles A's and B's [disk 2].wav

Пиковый уровень 100.0 %
Скорость извлечения 0.3 X
Качество диапазона 100.0 %
CRC копии D59BF20A
Копирование... OK

Ошибок не произошло

Конец отчёта
=======================
AUDIOCHECKER v2.0 beta (build 457) - by Dester - opdester@freemail.hu
~~~~~~~~~~~~~~~~~~~~~~~~~~~~~~~~~~
-=== НЕ РЕДАКТИРУЙТЕ ЭТОТ ФАЙЛ! ===-

Путь: ...\CD2

1 -=- Shocking Blue - Singles A's and B's [disk 2].flac -=- CDDA (100%)

116828916[/spoiler]
[spoiler=CD2 Track, Spectr, Frequency]
     

[/spoiler]

MP3
Доступно только для пользователей





Чтобы скачать данный материал или оставить комментарий Вам необходимо
зарегистрироваться или войти на сайт под своим логином и паролем.


[ Вход ]

[ Регистрация ]
Не забывайте ставить оценки и комментировать материалы.
Ваше мнение и активность мотивирует к новым публикациям
Категория: Rock | Добавил: igoryok63 | Теги: Shocking Blue
Просмотров: 903 | | Рейтинг: 0.0/0
Всего комментариев: 0
Форма входа
Логин:
Пароль:
Поиск в заголовках
Поиск
Ссылки
Copyright MyCorp © 2021