Четверг, 27.01.2022, 07:26 Приветствую Вас Гость | RSS
Категории раздела
Blues [6753]
Jazz [580]
Rock [4401]
Funk, Soul [147]
Fusion, Jazz-Rock [315]
Прочее [729]
Lossless [9290]
Наш баннер
Статистика
Онлайн всего: 1
Гостей: 1
Пользователей: 0

Зарегистрировано: 2398
Новых сегодня: 0
Новых вчера: 0
Новых за неделю: 12
Новых за 30 дней: 51
Сегодня сайт посетили
Сегодня родились

Благотворительная
стимуляция
развития сайта

Z161056227917
R725602230565
U198363340591

Главная » Файлы » Музыка » Blues

Dana Fuchs - Live in NYC (2007) [flac]
09.02.2014, 07:34





Краткое знакомство с альбомом:


Исполнитель: Dana Fuchs
Альбом: Live in NYC
Год выпуска: 2007
Стиль: Blues
Формат: flac (image, cue, log) / mp3
Битрейт: Lossless / 320kbps
Время звучания: 01:19:26
Размер файла: 603,13 Мb / 196,80 Мb
___________________________

Tracklist:
--------------------------------------
01. Almost home - 5:13  
02. Hiding from your love - 5:40  
03. Lonely for a lifetime - 6:48  
04. Baby loves the life - 5:12  
05. Bleed more - 4:22  
06. Cool enough - 6:11  
07. Songbird (Fly me to sleep) - 7:55  
08. Bible baby - 4:50  
09. God's song - 5:17  
10. Misery - 5:31  
11. Strung out - 5:34  
12. Bad seed - 6:29  
13. I'd rather go blind - 6:23  
14. Helter skelter - 4:01

Password in archive: nota304

[spoiler=Log EAC + AUDIOCHECKER]Exact Audio Copy V1.0 beta 1 from 15. November 2010

Отчёт EAC об извлечении, выполненном 31. января 2014, 6:44

Dana Fuchs / Live in NYC

Дисковод: HL-DT-STDVDRAM GSA-H44N Adapter: 0 ID: 0

Режим чтения : Достоверность
Использование точного потока : Да
Отключение кэша аудио : Да
Использование указателей C2 : Нет

Коррекция смещения при чтении : 667
Способность читать области Lead-in и Lead-out : Нет
Заполнение пропущенных сэмплов тишиной : Да
Удаление блоков с тишиной в начале и конце : Нет
При вычислениях CRC использовались нулевые сэмплы : Да
Интерфейс : Встроенный Win32-интерфейс для Win NT/2000

Выходной формат : Пользовательский кодировщик
Выбранный битрейт : 1024 kBit/s
Качество : Высокий
Добавление ID3-тега : Нет
Утилита сжатия : C:\Program Files\Exact Audio Copy\FLAC\FLAC.EXE
Дополнительные параметры : -6 -V -T "ARTIST=%a" -T "TITLE=%t" -T "ALBUM=%g" -T "DATE=%y" -T "TRACKNUMBER=%n" -T "GENRE=%m" -T "COMMENT=%e" %j--picture="%i"%j %s -o %d

TOC извлечённого CD

Трек | Старт | Длительность | Начальный сектор | Конечный сектор
---------------------------------------------------------------------
1 | 0:00.00 | 5:13.35 | 0 | 23509
2 | 5:13.35 | 5:40.02 | 23510 | 49011
3 | 10:53.37 | 6:48.64 | 49012 | 79675
4 | 17:42.26 | 5:12.26 | 79676 | 103101
5 | 22:54.52 | 4:22.35 | 103102 | 122786
6 | 27:17.12 | 6:11.45 | 122787 | 150656
7 | 33:28.57 | 7:55.12 | 150657 | 186293
8 | 41:23.69 | 4:50.18 | 186294 | 208061
9 | 46:14.12 | 5:17.48 | 208062 | 231884
10 | 51:31.60 | 5:31.36 | 231885 | 256745
11 | 57:03.21 | 5:34.20 | 256746 | 281815
12 | 62:37.41 | 6:29.61 | 281816 | 311051
13 | 69:07.27 | 6:23.09 | 311052 | 339785
14 | 75:30.36 | 3:59.68 | 339786 | 357778

Характеристики диапазона извлечения и сообщения об ошибках

Выбранный диапазон

Имя файла F:\Blues 2010\Dana Fuchs - Live in NYC (2007)\Dana Fuchs - Live in NYC.wav

Пиковый уровень 96.6 %
Скорость извлечения 0.3 X
Качество диапазона 100.0 %
CRC копии C99D647F
Копирование... OK

Ошибок не произошло

Конец отчёта
===============
AUDIOCHECKER v2.0 beta (build 457) - by Dester - opdester@freemail.hu
~~~~~~~~~~~~~~~~~~~~~~~~~~~~~~~~~~
-=== НЕ РЕДАКТИРУЙТЕ ЭТОТ ФАЙЛ! ===-

Путь: ...\Dana Fuchs - Live in NYC (2007)

1 -=- Dana Fuchs - Live in NYC.flac -=- CDDA (99%)

103616020[/spoiler]

MP3
Доступно только для пользователей





Чтобы скачать данный материал или оставить комментарий Вам необходимо
зарегистрироваться или войти на сайт под своим логином и паролем.


[ Вход ]

[ Регистрация ]
Не забывайте ставить оценки и комментировать материалы.
Ваше мнение и активность мотивирует к новым публикациям
Категория: Blues | Добавил: igoryok63 | Теги: Dana Fuchs
Просмотров: 709 | | Рейтинг: 0.0/0
Всего комментариев: 0
Форма входа
Логин:
Пароль:
Поиск в заголовках
Поиск
Ссылки
Copyright MyCorp © 2022