Четверг, 27.01.2022, 07:56 Приветствую Вас Гость | RSS
Категории раздела
Blues [6753]
Jazz [580]
Rock [4401]
Funk, Soul [147]
Fusion, Jazz-Rock [315]
Прочее [729]
Lossless [9290]
Наш баннер
Статистика
Онлайн всего: 2
Гостей: 1
Пользователей: 1
Serg54

Зарегистрировано: 2398
Новых сегодня: 0
Новых вчера: 0
Новых за неделю: 12
Новых за 30 дней: 51
Сегодня сайт посетили
Сегодня родились

Благотворительная
стимуляция
развития сайта

Z161056227917
R725602230565
U198363340591

Главная » Файлы » Музыка » Blues

The Dana Fuchs Band - Lonely For A Lifetime (2003) [flac]
09.02.2014, 07:45





Краткое знакомство с альбомом:


Исполнитель: The Dana Fuchs Band
Альбом: Lonely For A Lifetime
Год выпуска: 2003
Стиль: Blues
Формат: flac (image, cue, log)
Битрейт: Lossless
Время звучания: 00:51:19
Размер файла: 339,20 Мb
___________________________

Tracklist:
--------------------------------------
01. Strung Out - 4:20  
02. Lonely For A Lifetime - 4:11  
03. Moment Away - 3:56  
04. Songbird (Fly Me To Sleep) - 4:23  
05. Tell Me I'm Not Drinking - 3:40  
06. Bible Baby - 3:04  
07. God's Song - 3:46  
08. Bad Seed - 4:30  
09. Fading Away - 3:27  
10. I Know You Know - 5:08  
11. Hiding From Your Love - 5:29  
12. Sad Salvation - 5:25

Password in archive: nota304

[spoiler=Log EAC + AUDIOCHECKER]Exact Audio Copy V1.0 beta 1 from 15. November 2010

Отчёт EAC об извлечении, выполненном 31. января 2014, 19:47

The Dana Fuchs Band / Lonely For A Lifetime

Дисковод: HL-DT-STDVDRAM GSA-H44N Adapter: 0 ID: 0

Режим чтения : Достоверность
Использование точного потока : Да
Отключение кэша аудио : Да
Использование указателей C2 : Нет

Коррекция смещения при чтении : 667
Способность читать области Lead-in и Lead-out : Нет
Заполнение пропущенных сэмплов тишиной : Да
Удаление блоков с тишиной в начале и конце : Нет
При вычислениях CRC использовались нулевые сэмплы : Да
Интерфейс : Встроенный Win32-интерфейс для Win NT/2000

Выходной формат : Пользовательский кодировщик
Выбранный битрейт : 1024 kBit/s
Качество : Высокий
Добавление ID3-тега : Нет
Утилита сжатия : C:\Program Files\Exact Audio Copy\FLAC\FLAC.EXE
Дополнительные параметры : -6 -V -T "ARTIST=%a" -T "TITLE=%t" -T "ALBUM=%g" -T "DATE=%y" -T "TRACKNUMBER=%n" -T "GENRE=%m" -T "COMMENT=%e" %j--picture="%i"%j %s -o %d

TOC извлечённого CD

Трек | Старт | Длительность | Начальный сектор | Конечный сектор
---------------------------------------------------------------------
1 | 0:00.00 | 4:23.02 | 0 | 19726
2 | 4:23.02 | 4:13.66 | 19727 | 38767
3 | 8:36.68 | 3:58.08 | 38768 | 56625
4 | 12:35.01 | 4:25.14 | 56626 | 76514
5 | 17:00.15 | 3:42.56 | 76515 | 93220
6 | 20:42.71 | 3:06.32 | 93221 | 107202
7 | 23:49.28 | 3:48.07 | 107203 | 124309
8 | 27:37.35 | 4:32.69 | 124310 | 144778
9 | 32:10.29 | 3:29.67 | 144779 | 160520
10 | 35:40.21 | 5:10.44 | 160521 | 183814
11 | 40:50.65 | 5:31.03 | 183815 | 208642
12 | 46:21.68 | 5:25.53 | 208643 | 233070

Характеристики диапазона извлечения и сообщения об ошибках

Выбранный диапазон

Имя файла F:\Blues 2010\Dana Fuchs - Lonely For A Lifetime (2003)\The Dana Fuchs Band - Lonely For A Lifetime.wav

Пиковый уровень 100.0 %
Скорость извлечения 0.7 X
Качество диапазона 100.0 %
CRC копии 0683D9E7
Копирование... OK

Ошибок не произошло

Конец отчёта
================
AUDIOCHECKER v2.0 beta (build 457) - by Dester - opdester@freemail.hu
~~~~~~~~~~~~~~~~~~~~~~~~~~~~~~~~~~
-=== НЕ РЕДАКТИРУЙТЕ ЭТОТ ФАЙЛ! ===-

Путь: ...\Dana Fuchs - Lonely For A Lifetime (2003)

1 -=- The Dana Fuchs Band - Lonely For A Lifetime.flac -=- CDDA (100%)

251288692[/spoiler]





Чтобы скачать данный материал или оставить комментарий Вам необходимо
зарегистрироваться или войти на сайт под своим логином и паролем.


[ Вход ]

[ Регистрация ]
Не забывайте ставить оценки и комментировать материалы.
Ваше мнение и активность мотивирует к новым публикациям
Категория: Blues | Добавил: igoryok63 | Теги: Dana Fuchs
Просмотров: 565 | Комментарии: 2 | Рейтинг: 5.0/1
Всего комментариев: 2
ссылка на этот коментарий  0   Спам
 
  Спасибо! fm ar
Цитировать

2 | igoryok63 | Игорь (10.02.2014 | 16:31)[Материал]
ссылка на этот коментарий  0   Спам
 
  fm
Цитировать

Форма входа
Логин:
Пароль:
Поиск в заголовках
Поиск
Ссылки
Copyright MyCorp © 2022