Суббота, 27.11.2021, 20:28 Приветствую Вас Гость | RSS
Категории раздела
Blues [6745]
Jazz [563]
Rock [4376]
Funk, Soul [135]
Fusion, Jazz-Rock [312]
Прочее [725]
Lossless [9245]
Наш баннер
Статистика
Онлайн всего: 4
Гостей: 1
Пользователей: 3
AMD, myv86, bobo59

Зарегистрировано: 2306
Новых сегодня: 2
Новых вчера: 2
Новых за неделю: 13
Новых за 30 дней: 61
Сегодня сайт посетили
Сегодня родились

Благотворительная
стимуляция
развития сайта

Z161056227917
R725602230565
U198363340591

Главная » Файлы » Музыка » Rock

Danny Wilde and The Rembrandts - Spin This (1998) [flac]
22.02.2014, 10:45





Краткое знакомство с альбомом:


Исполнитель: Danny Wilde and The Rembrandts
Альбом: Spin This
Год выпуска: 1998
Стиль: Rock
Формат: flac (image, cue, log) / mp3
Битрейт: Lossless / 320kbps
Время звучания: 00:38:53
Размер файла: 296,56 Мb / 96,42 Мb
___________________________

Tracklist:
--------------------------------------
01. Shakespeare's Tragedy - 3:46  
02. Long Walk Back - 3:41  
03. Out Of Time - 4:09  
04. Wishin' Well - 3:22  
05. Summertime - 4:20  
06. Tomorrow's Mine - 4:21  
07. Get It Right - 3:24  
08. Eloise - 3:07  
09. This Close To Heaven - 4:11  
10. Beautiful Heaven - 4:32

Password in archive: nota304

[spoiler=Log EAC + AUDIOCHECKER]Exact Audio Copy V1.0 beta 1 from 15. November 2010

Отчёт EAC об извлечении, выполненном 19. января 2014, 14:27

Danny Wilde and The Rembrandts / Spin This

Дисковод: HL-DT-STDVDRAM GSA-H44N Adapter: 0 ID: 0

Режим чтения : Достоверность
Использование точного потока : Да
Отключение кэша аудио : Да
Использование указателей C2 : Нет

Коррекция смещения при чтении : 667
Способность читать области Lead-in и Lead-out : Нет
Заполнение пропущенных сэмплов тишиной : Да
Удаление блоков с тишиной в начале и конце : Нет
При вычислениях CRC использовались нулевые сэмплы : Да
Интерфейс : Встроенный Win32-интерфейс для Win NT/2000

Выходной формат : Пользовательский кодировщик
Выбранный битрейт : 1024 kBit/s
Качество : Высокий
Добавление ID3-тега : Нет
Утилита сжатия : C:\Program Files\Exact Audio Copy\FLAC\FLAC.EXE
Дополнительные параметры : -6 -V -T "ARTIST=%a" -T "TITLE=%t" -T "ALBUM=%g" -T "DATE=%y" -T "TRACKNUMBER=%n" -T "GENRE=%m" -T "COMMENT=%e" %j--picture="%i"%j %s -o %d

TOC извлечённого CD

Трек | Старт | Длительность | Начальный сектор | Конечный сектор
---------------------------------------------------------------------
1 | 0:00.00 | 3:48.25 | 0 | 17124
2 | 3:48.25 | 3:43.32 | 17125 | 33881
3 | 7:31.57 | 4:11.17 | 33882 | 52723
4 | 11:42.74 | 3:24.32 | 52724 | 68055
5 | 15:07.31 | 4:22.17 | 68056 | 87722
6 | 19:29.48 | 4:23.55 | 87723 | 107502
7 | 23:53.28 | 3:26.32 | 107503 | 122984
8 | 27:19.60 | 3:09.62 | 122985 | 137221
9 | 30:29.47 | 4:13.40 | 137222 | 156236
10 | 34:43.12 | 4:32.47 | 156237 | 176683

Характеристики диапазона извлечения и сообщения об ошибках

Выбранный диапазон

Имя файла F:\Danny Wilde\Danny Wilde and The Rembrandts - Spin This (1998)\Danny Wilde and The Rembrandts - Spin This.wav

Пиковый уровень 98.8 %
Скорость извлечения 0.7 X
Качество диапазона 99.9 %
CRC копии 129F6C8B
Копирование... OK

Ошибок не произошло

Конец отчёта
===============
AUDIOCHECKER v2.0 beta (build 457) - by Dester - opdester@freemail.hu
~~~~~~~~~~~~~~~~~~~~~~~~~~~~~~~~~~
-=== НЕ РЕДАКТИРУЙТЕ ЭТОТ ФАЙЛ! ===-

Путь: ...\Danny Wilde and The Rembrandts - Spin This (1998)

1 -=- Danny Wilde and The Rembrandts - Spin This.flac -=- CDDA (100%)

146065188[/spoiler]
[spoiler=Track, Spectr, Frequency]


[/spoiler]

MP3
Доступно только для пользователей





Чтобы скачать данный материал или оставить комментарий Вам необходимо
зарегистрироваться или войти на сайт под своим логином и паролем.


[ Вход ]

[ Регистрация ]
Не забывайте ставить оценки и комментировать материалы.
Ваше мнение и активность мотивирует к новым публикациям
Категория: Rock | Добавил: igoryok63 | Теги: Danny Wilde
Просмотров: 466 | | Рейтинг: 0.0/0
Всего комментариев: 0
Форма входа
Логин:
Пароль:
Поиск в заголовках
Поиск
Ссылки
Copyright MyCorp © 2021