Суббота, 27.11.2021, 20:19 Приветствую Вас Гость | RSS
Категории раздела
Blues [6745]
Jazz [563]
Rock [4376]
Funk, Soul [135]
Fusion, Jazz-Rock [312]
Прочее [725]
Lossless [9245]
Наш баннер
Статистика
Онлайн всего: 1
Гостей: 0
Пользователей: 1
AMD

Зарегистрировано: 2306
Новых сегодня: 2
Новых вчера: 2
Новых за неделю: 13
Новых за 30 дней: 61
Сегодня сайт посетили
Сегодня родились

Благотворительная
стимуляция
развития сайта

Z161056227917
R725602230565
U198363340591

Главная » Файлы » Музыка » Rock

Danny Wilde - Any Man's Hunger (1988) [flac]
22.02.2014, 10:30





Краткое знакомство с альбомом:


Исполнитель: Danny Wilde
Альбом: Any Man's Hunger
Год выпуска: 1988
Стиль: Rock
Формат: flac (image, cue, log) / mp3
Битрейт: Lossless / 320kbps
Время звучания: 00:46:42
Размер файла: 332,58 Мb / 115,81 Мb
___________________________

Tracklist:
--------------------------------------
01. Time Runs Wild - 4:46  
02. Ain't I Good Enough - 4:18  
03. Wouldn't Be The First Time - 4:07  
04. Bitter Moon - 4:18  
05. In A Bordertown - 3:51  
06. Set Me Free - 4:42  
07. Every Goodbye - 4:23  
08. Any Man's Hunger - 5:00  
09. This Old Town - 4:25  
10. Contradiction - 2:50  
11. Too Many Years Gone By - 4:02

Password in archive: nota304

[spoiler=Log EAC + AUDIOCHECKER]Exact Audio Copy V1.0 beta 1 from 15. November 2010

Отчёт EAC об извлечении, выполненном 19. января 2014, 9:17

Danny Wilde / Any Man's Hunger

Дисковод: HL-DT-STDVDRAM GSA-H44N Adapter: 0 ID: 0

Режим чтения : Достоверность
Использование точного потока : Да
Отключение кэша аудио : Да
Использование указателей C2 : Нет

Коррекция смещения при чтении : 667
Способность читать области Lead-in и Lead-out : Нет
Заполнение пропущенных сэмплов тишиной : Да
Удаление блоков с тишиной в начале и конце : Нет
При вычислениях CRC использовались нулевые сэмплы : Да
Интерфейс : Встроенный Win32-интерфейс для Win NT/2000

Выходной формат : Пользовательский кодировщик
Выбранный битрейт : 1024 kBit/s
Качество : Высокий
Добавление ID3-тега : Нет
Утилита сжатия : C:\Program Files\Exact Audio Copy\FLAC\FLAC.EXE
Дополнительные параметры : -6 -V -T "ARTIST=%a" -T "TITLE=%t" -T "ALBUM=%g" -T "DATE=%y" -T "TRACKNUMBER=%n" -T "GENRE=%m" -T "COMMENT=%e" %j--picture="%i"%j %s -o %d

TOC извлечённого CD

Трек | Старт | Длительность | Начальный сектор | Конечный сектор
---------------------------------------------------------------------
1 | 0:00.00 | 4:46.60 | 0 | 21509
2 | 4:46.60 | 4:20.60 | 21510 | 41069
3 | 9:07.45 | 4:10.02 | 41070 | 59821
4 | 13:17.47 | 4:20.74 | 59822 | 79395
5 | 17:38.46 | 3:53.23 | 79396 | 96893
6 | 21:31.69 | 4:44.57 | 96894 | 118250
7 | 26:16.51 | 4:25.54 | 118251 | 138179
8 | 30:42.30 | 5:02.24 | 138180 | 160853
9 | 35:44.54 | 4:27.08 | 160854 | 180886
10 | 40:11.62 | 2:52.42 | 180887 | 193828
11 | 43:04.29 | 4:02.27 | 193829 | 212005

Характеристики диапазона извлечения и сообщения об ошибках

Выбранный диапазон

Имя файла F:\Danny Wilde\Danny Wilde - Any Man's Hunger (1988)\Danny Wilde - Any Man's Hunger.wav

Пиковый уровень 100.0 %
Скорость извлечения 0.5 X
Качество диапазона 100.0 %
CRC копии B5E227A8
Копирование... OK

Ошибок не произошло

Конец отчёта
===============
AUDIOCHECKER v2.0 beta (build 457) - by Dester - opdester@freemail.hu
~~~~~~~~~~~~~~~~~~~~~~~~~~~~~~~~~~
-=== НЕ РЕДАКТИРУЙТЕ ЭТОТ ФАЙЛ! ===-

Путь: ...\Danny Wilde - Any Man's Hunger (1988)

1 -=- Danny Wilde - Any Man's Hunger.flac -=- CDDA (99%)

371636[/spoiler]
[spoiler=Track, Spectr, Frequency]


[/spoiler]

MP3
Доступно только для пользователей





Чтобы скачать данный материал или оставить комментарий Вам необходимо
зарегистрироваться или войти на сайт под своим логином и паролем.


[ Вход ]

[ Регистрация ]
Не забывайте ставить оценки и комментировать материалы.
Ваше мнение и активность мотивирует к новым публикациям
Категория: Rock | Добавил: igoryok63 | Теги: Danny Wilde
Просмотров: 449 | | Рейтинг: 0.0/0
Всего комментариев: 0
Форма входа
Логин:
Пароль:
Поиск в заголовках
Поиск
Ссылки
Copyright MyCorp © 2021