Суббота, 27.11.2021, 20:23 Приветствую Вас Гость | RSS
Категории раздела
Blues [6745]
Jazz [563]
Rock [4376]
Funk, Soul [135]
Fusion, Jazz-Rock [312]
Прочее [725]
Lossless [9245]
Наш баннер
Статистика
Онлайн всего: 4
Гостей: 1
Пользователей: 3
AMD, bobo59, myv86

Зарегистрировано: 2306
Новых сегодня: 2
Новых вчера: 2
Новых за неделю: 13
Новых за 30 дней: 61
Сегодня сайт посетили
Сегодня родились

Благотворительная
стимуляция
развития сайта

Z161056227917
R725602230565
U198363340591

Главная » Файлы » Музыка » Rock

Danny Wilde - Danny Wilde (1989) [flac]
22.02.2014, 10:40





Краткое знакомство с альбомом:


Исполнитель: Danny Wilde
Альбом: Danny Wilde
Год выпуска: 1989
Стиль: Rock
Формат: flac (image, cue, log) / mp3
Битрейт: Lossless / 320kbps
Время звучания: 00:44:48
Размер файла: 326,33 Мb / 111,15 Мb
___________________________

Tracklist:
--------------------------------------
01. The stuff that dreams are made of - 3:54  
02. It's just like you - 4:13  
03. With all your might - 3:29  
04. Cut from stone - 5:07  
05. Velvet chains - 4:41  
06. Who's gonna hold you now - 4:32  
07. My girl - 3:27  
08. The long way home - 4:26  
09. California sunshine - 2:59  
10. Like a river - 3:45  
11. We don't have to say goodbye - 4:15

Password in archive: nota304

[spoiler=Log EAC + AUDIOCHECKER]Exact Audio Copy V1.0 beta 1 from 15. November 2010

Отчёт EAC об извлечении, выполненном 19. января 2014, 10:59

Danny Wilde / Danny Wilde

Дисковод: HL-DT-STDVDRAM GSA-H44N Adapter: 0 ID: 0

Режим чтения : Достоверность
Использование точного потока : Да
Отключение кэша аудио : Да
Использование указателей C2 : Нет

Коррекция смещения при чтении : 667
Способность читать области Lead-in и Lead-out : Нет
Заполнение пропущенных сэмплов тишиной : Да
Удаление блоков с тишиной в начале и конце : Нет
При вычислениях CRC использовались нулевые сэмплы : Да
Интерфейс : Встроенный Win32-интерфейс для Win NT/2000

Выходной формат : Пользовательский кодировщик
Выбранный битрейт : 1024 kBit/s
Качество : Высокий
Добавление ID3-тега : Нет
Утилита сжатия : C:\Program Files\Exact Audio Copy\FLAC\FLAC.EXE
Дополнительные параметры : -6 -V -T "ARTIST=%a" -T "TITLE=%t" -T "ALBUM=%g" -T "DATE=%y" -T "TRACKNUMBER=%n" -T "GENRE=%m" -T "COMMENT=%e" %j--picture="%i"%j %s -o %d

TOC извлечённого CD

Трек | Старт | Длительность | Начальный сектор | Конечный сектор
---------------------------------------------------------------------
1 | 0:00.00 | 3:56.55 | 0 | 17754
2 | 3:56.55 | 4:15.70 | 17755 | 36949
3 | 8:12.50 | 3:31.02 | 36950 | 52776
4 | 11:43.52 | 5:09.10 | 52777 | 75961
5 | 16:52.62 | 4:43.62 | 75962 | 97248
6 | 21:36.49 | 4:34.17 | 97249 | 117815
7 | 26:10.66 | 3:29.62 | 117816 | 133552
8 | 29:40.53 | 4:28.17 | 133553 | 153669
9 | 34:08.70 | 3:01.40 | 153670 | 167284
10 | 37:10.35 | 3:47.32 | 167285 | 184341
11 | 40:57.67 | 4:15.47 | 184342 | 203513

Характеристики диапазона извлечения и сообщения об ошибках

Выбранный диапазон

Имя файла F:\Danny Wilde\Danny Wilde - Danny Wilde (1989)\Danny Wilde - Danny Wilde.wav

Пиковый уровень 100.0 %
Скорость извлечения 0.6 X
Качество диапазона 100.0 %
CRC копии D279964B
Копирование... OK

Ошибок не произошло

Конец отчёта
===============
AUDIOCHECKER v2.0 beta (build 457) - by Dester - opdester@freemail.hu
~~~~~~~~~~~~~~~~~~~~~~~~~~~~~~~~~~
-=== НЕ РЕДАКТИРУЙТЕ ЭТОТ ФАЙЛ! ===-

Путь: ...\Danny Wilde - Danny Wilde (1989)

1 -=- Danny Wilde - Danny Wilde.flac -=- CDDA (100%)

77094836[/spoiler]
[spoiler=Track, Spectr, Frequency]


[/spoiler]

MP3
Доступно только для пользователей





Чтобы скачать данный материал или оставить комментарий Вам необходимо
зарегистрироваться или войти на сайт под своим логином и паролем.


[ Вход ]

[ Регистрация ]
Не забывайте ставить оценки и комментировать материалы.
Ваше мнение и активность мотивирует к новым публикациям
Категория: Rock | Добавил: igoryok63 | Теги: Danny Wilde
Просмотров: 496 | | Рейтинг: 0.0/0
Всего комментариев: 0
Форма входа
Логин:
Пароль:
Поиск в заголовках
Поиск
Ссылки
Copyright MyCorp © 2021