Среда, 18.10.2017, 22:29 Приветствую Вас Гость | RSS
Категории раздела
Blues [5568]
Jazz [451]
Rock [2954]
Funk, Soul [74]
Fusion, Jazz-Rock [275]
Прочее [520]
Lossless [6241]
Наш баннер
Погода в Черновцах
Статистика
Онлайн всего: 1
Гостей: 1
Пользователей: 0

Зарегистрировано: 3248
Новых сегодня: 1
Новых вчера: 2
Новых за неделю: 5
Новых за 30 дней: 19
Сегодня сайт посетили
Сегодня родились

Благотворительная
стимуляция
развития сайта

Z161056227917
R725602230565
U198363340591

Главная » Файлы » Музыка » Blues

Carolyn Wonderland - Miss Understood (2008) [flac]
01.10.2013, 03:24





Краткое знакомство с альбомом:


Исполнитель: Carolyn Wonderland
Альбом: Miss Understood
Год выпуска: 2008
Стиль: Blues
Формат: flac (image, cue, log) / mp3
Битрейт: Lossless / 320kbps
Время звучания: 00:44:28
Размер файла: 328,83 Мb / 110,38 Мb
___________________________

Tracklist:
--------------------------------------
01. Misunderstood - 3:29  
02. I Found The Lions - 3:48  
03. Bad Girl Blues - 4:27  
04. Walk On - 3:58  
05. Still Alive And Well - 3:00  
06. Long Way To Go - 2:59  
07. I Don't Want To Fall For You - 3:49  
08. Trouble In The City - 3:33  
09. Throw My Love - 3:18  
10. I Live Alone With Someone - 3:37  
11. The Farmer Song - 4:00  
12. Feed Me To The Lions - 4:30

Password in archiv: nota304

[spoiler=Log EAC + AUDIOCHECKER]Exact Audio Copy V1.0 beta 1 from 15. November 2010

Отчёт EAC об извлечении, выполненном 28. сентября 2013, 17:18

Carolyn Wonderland / Miss Understood

Дисковод: HL-DT-STDVDRAM GSA-H44N Adapter: 0 ID: 0

Режим чтения : Достоверность
Использование точного потока : Да
Отключение кэша аудио : Да
Использование указателей C2 : Нет

Коррекция смещения при чтении : 667
Способность читать области Lead-in и Lead-out : Нет
Заполнение пропущенных сэмплов тишиной : Да
Удаление блоков с тишиной в начале и конце : Нет
При вычислениях CRC использовались нулевые сэмплы : Да
Интерфейс : Встроенный Win32-интерфейс для Win NT/2000

Выходной формат : Пользовательский кодировщик
Выбранный битрейт : 1024 kBit/s
Качество : Высокий
Добавление ID3-тега : Нет
Утилита сжатия : C:\Program Files\Exact Audio Copy\FLAC\FLAC.EXE
Дополнительные параметры : -6 -V -T "ARTIST=%a" -T "TITLE=%t" -T "ALBUM=%g" -T "DATE=%y" -T "TRACKNUMBER=%n" -T "GENRE=%m" -T "COMMENT=%e" %j--picture="%i"%j %s -o %d

TOC извлечённого CD

Трек | Старт | Длительность | Начальный сектор | Конечный сектор
---------------------------------------------------------------------
1 | 0:00.00 | 3:31.02 | 0 | 15826
2 | 3:31.02 | 3:50.14 | 15827 | 33090
3 | 7:21.16 | 4:29.53 | 33091 | 53318
4 | 11:50.69 | 4:00.09 | 53319 | 71327
5 | 15:51.03 | 3:02.60 | 71328 | 85037
6 | 18:53.63 | 3:01.26 | 85038 | 98638
7 | 21:55.14 | 3:51.12 | 98639 | 115975
8 | 25:46.26 | 3:35.45 | 115976 | 132145
9 | 29:21.71 | 3:20.65 | 132146 | 147210
10 | 32:42.61 | 3:39.55 | 147211 | 163690
11 | 36:22.41 | 4:02.16 | 163691 | 181856
12 | 40:24.57 | 4:30.42 | 181857 | 202148

Характеристики диапазона извлечения и сообщения об ошибках

Выбранный диапазон

Имя файла F:\Carolyn Wonderland\Carolyn Wonderland - Miss Understood (2008)\Carolyn Wonderland - Miss Understood.wav

Пиковый уровень 91.8 %
Скорость извлечения 0.6 X
Качество диапазона 100.0 %
CRC копии 38D42BEE
Копирование... OK

Ошибок не произошло

Конец отчёта
=============
AUDIOCHECKER v2.0 beta (build 457) - by Dester - opdester@freemail.hu
~~~~~~~~~~~~~~~~~~~~~~~~~~~~~~~~~~
-=== НЕ РЕДАКТИРУЙТЕ ЭТОТ ФАЙЛ! ===-

Путь: ...\Carolyn Wonderland - Miss Understood (2008)

1 -=- Carolyn Wonderland - Miss Understood.flac -=- CDDA (99%)

193685844[/spoiler]
[spoiler=Track, Spectr, Frequency]
     

[/spoiler]

MP3
Доступно только для пользователей




Чтобы скачать данный материал или оставить комментарий Вам необходимо
зарегистрироваться или войти на сайт под своим логином и паролем.


[ Вход ]

[ Регистрация ]
Категория: Blues | Добавил: igoryok63 | Теги: Carolyn Wonderland
Просмотров: 684 | | Рейтинг: 0.0/0
Всего комментариев: 0
Форма входа
Логин:
Пароль:
Поиск в заголовках
Поиск
Ссылки
Раздача GOLD-ов для Depositfiles
Copyright MyCorp © 2017