Среда, 18.10.2017, 22:29 Приветствую Вас Гость | RSS
Категории раздела
Blues [5568]
Jazz [451]
Rock [2954]
Funk, Soul [74]
Fusion, Jazz-Rock [275]
Прочее [520]
Lossless [6241]
Наш баннер
Погода в Черновцах
Статистика
Онлайн всего: 1
Гостей: 1
Пользователей: 0

Зарегистрировано: 3248
Новых сегодня: 1
Новых вчера: 2
Новых за неделю: 5
Новых за 30 дней: 19
Сегодня сайт посетили
Сегодня родились

Благотворительная
стимуляция
развития сайта

Z161056227917
R725602230565
U198363340591

Главная » Файлы » Музыка » Blues

Carolyn Wonderland - Alcohol & Salvation (2001) [flac]
22.02.2014, 10:00





Краткое знакомство с альбомом:

Исполнитель: Carolyn Wonderland
Альбом: Alcohol & Salvation
Год выпуска: 2001
Стиль: General Mainstream Rock
Формат: flac (image, cue, log) / mp3
Битрейт: Lossless / 320kbps
Время звучания: 00:44:20
Размер файла: 294,85 Мb / 110,09 Мb
___________________________

Tracklist:
--------------------------------------

01. I'm Innocent - 02:52
02. I'm Out Sick - 02:33
03. How Many Crowes - 03:53
04. Brick Wall - 02:11
05. The Only Girl You Know - 02:51
06. Worst Day of My Life - 03:25
07. Bad Girl - 02:18
08. Beer - 01:12
09. Pieces of a Postcard - 03:48
10. Feed Me to the Lions - 03:53
11. Sober - 04:02
12. I'm the Man - 02:30
13. Gospel Song - 05:08
14. I Don't Wanna Fall for You - 03:20

Password in archive: nota304

[spoiler=Log EAC + AUDIOCHECKER]Exact Audio Copy V1.0 beta 1 from 15. November 2010

Отчёт EAC об извлечении, выполненном 28. сентября 2013, 19:25

Carolyn Wonderland / Alcohol & Salvation

Дисковод: HL-DT-STDVDRAM GSA-H44N Adapter: 0 ID: 0

Режим чтения : Достоверность
Использование точного потока : Да
Отключение кэша аудио : Да
Использование указателей C2 : Нет

Коррекция смещения при чтении : 667
Способность читать области Lead-in и Lead-out : Нет
Заполнение пропущенных сэмплов тишиной : Да
Удаление блоков с тишиной в начале и конце : Нет
При вычислениях CRC использовались нулевые сэмплы : Да
Интерфейс : Встроенный Win32-интерфейс для Win NT/2000

Выходной формат : Пользовательский кодировщик
Выбранный битрейт : 1024 kBit/s
Качество : Высокий
Добавление ID3-тега : Нет
Утилита сжатия : C:\Program Files\Exact Audio Copy\FLAC\FLAC.EXE
Дополнительные параметры : -6 -V -T "ARTIST=%a" -T "TITLE=%t" -T "ALBUM=%g" -T "DATE=%y" -T "TRACKNUMBER=%n" -T "GENRE=%m" -T "COMMENT=%e" %j--picture="%i"%j %s -o %d

TOC извлечённого CD

Трек | Старт | Длительность | Начальный сектор | Конечный сектор
---------------------------------------------------------------------
1 | 0:00.00 | 2:57.10 | 0 | 13284
2 | 2:57.10 | 2:38.25 | 13285 | 25159
3 | 5:35.35 | 3:58.02 | 25160 | 43011
4 | 9:33.37 | 2:14.40 | 43012 | 53101
5 | 11:48.02 | 2:55.32 | 53102 | 66258
6 | 14:43.34 | 3:29.47 | 66259 | 81980
7 | 18:13.06 | 2:21.25 | 81981 | 92580
8 | 20:34.31 | 1:15.25 | 92581 | 98230
9 | 21:49.56 | 3:49.47 | 98231 | 115452
10 | 25:39.28 | 3:58.32 | 115453 | 133334
11 | 29:37.60 | 4:04.62 | 133335 | 151696
12 | 33:42.47 | 2:34.55 | 151697 | 163301
13 | 36:17.27 | 5:14.32 | 163302 | 186883
14 | 41:31.59 | 3:21.32 | 186884 | 201990

Характеристики диапазона извлечения и сообщения об ошибках

Выбранный диапазон

Имя файла F:\Carolyn Wonderland\Carolyn Wonderland - Alcohol & Salvation (2001)\Carolyn Wonderland - Alcohol & Salvation.wav

Пиковый уровень 88.3 %
Скорость извлечения 0.5 X
Качество диапазона 100.0 %
CRC копии F5F11B23
Копирование... OK

Ошибок не произошло

Конец отчёта
===============
AUDIOCHECKER v2.0 beta (build 457) - by Dester - opdester@freemail.hu
~~~~~~~~~~~~~~~~~~~~~~~~~~~~~~~~~~
-=== НЕ РЕДАКТИРУЙТЕ ЭТОТ ФАЙЛ! ===-

Путь: ...\Carolyn Wonderland - Alcohol & Salvation (2001)

1 -=- Carolyn Wonderland - Alcohol & Salvation.flac -=- CDDA (100%)

82062020[/spoiler]
[spoiler=Track, Spectr, Frequency]
     

[/spoiler]

MP3
Доступно только для пользователей




Чтобы скачать данный материал или оставить комментарий Вам необходимо
зарегистрироваться или войти на сайт под своим логином и паролем.


[ Вход ]

[ Регистрация ]
Категория: Blues | Добавил: igoryok63 | Теги: Carolyn Wonderland
Просмотров: 454 | | Рейтинг: 0.0/0
Всего комментариев: 0
Форма входа
Логин:
Пароль:
Поиск в заголовках
Поиск
Ссылки
Раздача GOLD-ов для Depositfiles
Copyright MyCorp © 2017