Пятница, 21.01.2022, 23:14 Приветствую Вас Гость | RSS
Категории раздела
Blues [6753]
Jazz [580]
Rock [4399]
Funk, Soul [147]
Fusion, Jazz-Rock [315]
Прочее [729]
Lossless [9288]
Наш баннер
Статистика
Онлайн всего: 1
Гостей: 1
Пользователей: 0

Зарегистрировано: 2389
Новых сегодня: 0
Новых вчера: 2
Новых за неделю: 13
Новых за 30 дней: 47
Сегодня сайт посетили
Сегодня родились

Благотворительная
стимуляция
развития сайта

Z161056227917
R725602230565
U198363340591

Главная » Файлы » Музыка » Blues

Sue Foley - Change (2004) [flac]
06.09.2013, 04:08





Краткое знакомство с альбомом:


Исполнитель: Sue Foley
Альбом: Change
Год выпуска: 2004
Стиль: Electric Blues
Формат: flac (image, cue, log) / mp3
Битрейт: Lossless / 320kbps
Время звучания: 00:49:58
Размер файла: 344,64 Мb / 124,00 Мb
___________________________

Tracklist:
--------------------------------------
01. Goin' Down The Road Again - 3:07  
02. Hardworking Woman - 3:43  
03. Doggie Treats - 6:17  
04. Careless Love - 6:05  
05. Change - 2:50  
06. Bad Luck Woman - 4:17  
07. Mournin' In The Morning - 3:32  
08. Sugar In My Bowl - 3:54  
09. Here Comes The Sun - 3:02  
10. Me And My Chauffeur - 3:45  
11. You Don't Have To Go - 4:41  
12. Shake That Thing - 4:45

Password in archiv: nota304

[spoiler=Log EAC + AUDIOCHECKER]Exact Audio Copy V1.0 beta 1 from 15. November 2010

Отчёт EAC об извлечении, выполненном 2. сентября 2013, 6:08

Sue Foley / Change

Дисковод: HL-DT-STDVDRAM GSA-H44N Adapter: 0 ID: 0

Режим чтения : Достоверность
Использование точного потока : Да
Отключение кэша аудио : Да
Использование указателей C2 : Нет

Коррекция смещения при чтении : 667
Способность читать области Lead-in и Lead-out : Нет
Заполнение пропущенных сэмплов тишиной : Да
Удаление блоков с тишиной в начале и конце : Нет
При вычислениях CRC использовались нулевые сэмплы : Да
Интерфейс : Встроенный Win32-интерфейс для Win NT/2000

Выходной формат : Пользовательский кодировщик
Выбранный битрейт : 1024 kBit/s
Качество : Высокий
Добавление ID3-тега : Нет
Утилита сжатия : C:\Program Files\Exact Audio Copy\FLAC\FLAC.EXE
Дополнительные параметры : -6 -V -T "ARTIST=%a" -T "TITLE=%t" -T "ALBUM=%g" -T "DATE=%y" -T "TRACKNUMBER=%n" -T "GENRE=%m" -T "COMMENT=%e" %j--picture="%i"%j %s -o %d

TOC извлечённого CD

Трек | Старт | Длительность | Начальный сектор | Конечный сектор
---------------------------------------------------------------------
1 | 0:00.00 | 3:09.10 | 0 | 14184
2 | 3:09.10 | 3:45.55 | 14185 | 31114
3 | 6:54.65 | 6:19.10 | 31115 | 59549
4 | 13:14.00 | 6:07.25 | 59550 | 87099
5 | 19:21.25 | 2:52.70 | 87100 | 100069
6 | 22:14.20 | 4:19.25 | 100070 | 119519
7 | 26:33.45 | 3:34.55 | 119520 | 135624
8 | 30:08.25 | 3:56.70 | 135625 | 153394
9 | 34:05.20 | 3:04.17 | 153395 | 167211
10 | 37:09.37 | 3:48.02 | 167212 | 184313
11 | 40:57.39 | 4:43.62 | 184314 | 205600
12 | 45:41.26 | 4:46.02 | 205601 | 227052

Характеристики диапазона извлечения и сообщения об ошибках

Выбранный диапазон

Имя файла F:\Sue Foley\Flac\Sue Foley - Change (2004)\1\Sue Foley - Change.wav

Пиковый уровень 98.1 %
Скорость извлечения 0.6 X
Качество диапазона 100.0 %
CRC копии 12D8C18C
Копирование... OK

Ошибок не произошло

Конец отчёта
===============
AUDIOCHECKER v2.0 beta (build 457) - by Dester - opdester@freemail.hu
~~~~~~~~~~~~~~~~~~~~~~~~~~~~~~~~~~
-=== НЕ РЕДАКТИРУЙТЕ ЭТОТ ФАЙЛ! ===-

Путь: ...\Sue Foley - Change (2004)

1 -=- Sue Foley - Change.flac -=- CDDA (100%)

159138116[/spoiler]
[spoiler=Track, Spectr, Frequency]
     

[/spoiler]

MP3
Доступно только для пользователей





Чтобы скачать данный материал или оставить комментарий Вам необходимо
зарегистрироваться или войти на сайт под своим логином и паролем.


[ Вход ]

[ Регистрация ]
Не забывайте ставить оценки и комментировать материалы.
Ваше мнение и активность мотивирует к новым публикациям
Категория: Blues | Добавил: igoryok63 | Теги: Sue Foley
Просмотров: 597 | | Рейтинг: 0.0/0
Всего комментариев: 0
Форма входа
Логин:
Пароль:
Поиск в заголовках
Поиск
Ссылки
Copyright MyCorp © 2022