Суббота, 22.01.2022, 22:42 Приветствую Вас Гость | RSS
Категории раздела
Blues [6753]
Jazz [580]
Rock [4400]
Funk, Soul [147]
Fusion, Jazz-Rock [315]
Прочее [729]
Lossless [9289]
Наш баннер
Статистика
Онлайн всего: 1
Гостей: 1
Пользователей: 0

Зарегистрировано: 2392
Новых сегодня: 3
Новых вчера: 2
Новых за неделю: 16
Новых за 30 дней: 49
Сегодня сайт посетили
Сегодня родились

Благотворительная
стимуляция
развития сайта

Z161056227917
R725602230565
U198363340591

Главная » Файлы » Музыка » Blues

Sue Foley - Big City Blues (1995)
09.09.2013, 04:03





Краткое знакомство с альбомом:


Исполнитель: Sue Foley
Альбом: Big City Blues
Год выпуска: 1995
Стиль: Electric Blues
Формат: flac (image, cue, log) / mp3
Битрейт: Lossless / 320kbps
Время звучания: 00:39:43
Размер файла: 272,15 Мb / 98,67 Мb
___________________________

Tracklist:
--------------------------------------
01. Big City Blues - 3:34  
02. Howlin' For My Darling - 3:38  
03. To Be Alone With You - 4:16  
04. One Hundred Dollar Bill - 2:21  
05. Ain't Gonna Worry No More - 2:36  
06. This Time - 3:45  
07. As Long As I Have You - 4:16  
08. Highway Bound - 4:04  
09. If You Gotta Go - 3:49  
10. My Baby's Sweeter - 4:20  
11. Girl's Night Out - 3:04

Password in archiv: nota304

[spoiler=Log EAC + AUDIOCHECKER]Exact Audio Copy V1.0 beta 1 from 15. November 2010

Отчёт EAC об извлечении, выполненном 7. сентября 2013, 8:14

Sue Foley / Big City Blues

Дисковод: HL-DT-STDVDRAM GSA-H44N Adapter: 0 ID: 0

Режим чтения : Достоверность
Использование точного потока : Да
Отключение кэша аудио : Да
Использование указателей C2 : Нет

Коррекция смещения при чтении : 667
Способность читать области Lead-in и Lead-out : Нет
Заполнение пропущенных сэмплов тишиной : Да
Удаление блоков с тишиной в начале и конце : Нет
При вычислениях CRC использовались нулевые сэмплы : Да
Интерфейс : Встроенный Win32-интерфейс для Win NT/2000

Выходной формат : Пользовательский кодировщик
Выбранный битрейт : 1024 kBit/s
Качество : Высокий
Добавление ID3-тега : Нет
Утилита сжатия : C:\Program Files\Exact Audio Copy\FLAC\FLAC.EXE
Дополнительные параметры : -6 -V -T "ARTIST=%a" -T "TITLE=%t" -T "ALBUM=%g" -T "DATE=%y" -T "TRACKNUMBER=%n" -T "GENRE=%m" -T "COMMENT=%e" %j--picture="%i"%j %s -o %d

TOC извлечённого CD

Трек | Старт | Длительность | Начальный сектор | Конечный сектор
---------------------------------------------------------------------
1 | 0:00.00 | 3:36.25 | 0 | 16224
2 | 3:36.25 | 3:38.40 | 16225 | 32614
3 | 7:14.65 | 4:17.02 | 32615 | 51891
4 | 11:31.67 | 2:21.62 | 51892 | 62528
5 | 13:53.54 | 2:36.62 | 62529 | 74290
6 | 16:30.41 | 3:45.10 | 74291 | 91175
7 | 20:15.51 | 4:17.25 | 91176 | 110475
8 | 24:33.01 | 4:04.55 | 110476 | 128830
9 | 28:37.56 | 3:49.62 | 128831 | 146067
10 | 32:27.43 | 4:21.25 | 146068 | 165667
11 | 36:48.68 | 3:04.70 | 165668 | 179537

Характеристики диапазона извлечения и сообщения об ошибках

Выбранный диапазон

Имя файла F:\Sue Foley\Sue Foley - Big City Blues (1995)\Sue Foley - Big City Blues.wav

Пиковый уровень 100.0 %
Скорость извлечения 0.5 X
Качество диапазона 99.9 %
CRC копии 8751D38F
Копирование... OK

Ошибок не произошло

Конец отчёта
================
AUDIOCHECKER v2.0 beta (build 457) - by Dester - opdester@freemail.hu
~~~~~~~~~~~~~~~~~~~~~~~~~~~~~~~~~~
-=== НЕ РЕДАКТИРУЙТЕ ЭТОТ ФАЙЛ! ===-

Путь: ...\Sue Foley - Big City Blues (1995)

1 -=- Sue Foley - Big City Blues.flac -=- CDDA (100%)

122897956[/spoiler]
[spoiler=Track, Spectr, Frequency]
     

[/spoiler]

MP3
Доступно только для пользователей





Чтобы скачать данный материал или оставить комментарий Вам необходимо
зарегистрироваться или войти на сайт под своим логином и паролем.


[ Вход ]

[ Регистрация ]
Не забывайте ставить оценки и комментировать материалы.
Ваше мнение и активность мотивирует к новым публикациям
Категория: Blues | Добавил: igoryok63 | Теги: Sue Foley
Просмотров: 549 | Комментарии: 1 | Рейтинг: 0.0/0
Всего комментариев: 1
1 | Scully | Dana Scully (09.09.2013 | 07:17)[Материал]
ссылка на этот коментарий  0   Спам
Выбери себе аватар 
  Спасибо!
Цитировать

Форма входа
Логин:
Пароль:
Поиск в заголовках
Поиск
Ссылки
Copyright MyCorp © 2022