Суббота, 22.01.2022, 23:04 Приветствую Вас Гость | RSS
Категории раздела
Blues [6753]
Jazz [580]
Rock [4400]
Funk, Soul [147]
Fusion, Jazz-Rock [315]
Прочее [729]
Lossless [9289]
Наш баннер
Статистика
Онлайн всего: 2
Гостей: 1
Пользователей: 1
vova144ck

Зарегистрировано: 2392
Новых сегодня: 0
Новых вчера: 3
Новых за неделю: 13
Новых за 30 дней: 49
Сегодня сайт посетили
Сегодня родились

Благотворительная
стимуляция
развития сайта

Z161056227917
R725602230565
U198363340591

Главная » Файлы » Музыка » Blues

Sue Foley - Walk In The Sun (1996) [flac]
06.09.2013, 03:44



Краткое знакомство с альбомом:


Исполнитель: Sue Foley
Альбом: Walk In The Sun
Год выпуска: 1996
Стиль: Electric Blues
Формат: flac (image, cue, log) / mp3
Битрейт: Lossless / 320kbps
Время звучания: 00:44:08
Размер файла: 299,42 Мb / 109,51 Мb
___________________________

Tracklist:
--------------------------------------
01. Try To Understand - 5:03  
02. Give It To Me - 3:53  
03. Walk In The Sun - 3:32  
04. The Snake - 3:16  
05. Wayward Girl - 2:31  
06. The Wind - 4:45  
07. Lover's Call - 3:22  
08. Better - 3:37  
09. Train To Memphis - 4:40  
10. Love Sick Child - 4:32  
11. Long Distance Lover - 4:57

Password in archiv: nota304

[spoiler=Log EAC + AUDIOCHECKER]Exact Audio Copy V1.0 beta 1 from 15. November 2010

Отчёт EAC об извлечении, выполненном 1. сентября 2013, 16:33

Sue Foley / Walk In The Sun

Дисковод: HL-DT-STDVDRAM GSA-H44N Adapter: 0 ID: 0

Режим чтения : Достоверность
Использование точного потока : Да
Отключение кэша аудио : Да
Использование указателей C2 : Нет

Коррекция смещения при чтении : 667
Способность читать области Lead-in и Lead-out : Нет
Заполнение пропущенных сэмплов тишиной : Да
Удаление блоков с тишиной в начале и конце : Нет
При вычислениях CRC использовались нулевые сэмплы : Да
Интерфейс : Встроенный Win32-интерфейс для Win NT/2000

Выходной формат : Пользовательский кодировщик
Выбранный битрейт : 1024 kBit/s
Качество : Высокий
Добавление ID3-тега : Нет
Утилита сжатия : C:\Program Files\Exact Audio Copy\FLAC\FLAC.EXE
Дополнительные параметры : -6 -V -T "ARTIST=%a" -T "TITLE=%t" -T "ALBUM=%g" -T "DATE=%y" -T "TRACKNUMBER=%n" -T "GENRE=%m" -T "COMMENT=%e" %j--picture="%i"%j %s -o %d

TOC извлечённого CD

Трек | Старт | Длительность | Начальный сектор | Конечный сектор
---------------------------------------------------------------------
1 | 0:00.00 | 5:05.25 | 0 | 22899
2 | 5:05.25 | 3:55.25 | 22900 | 40549
3 | 9:00.50 | 3:34.70 | 40550 | 56669
4 | 12:35.45 | 3:18.62 | 56670 | 71581
5 | 15:54.32 | 2:33.32 | 71582 | 83088
6 | 18:27.64 | 4:47.47 | 83089 | 104660
7 | 23:15.36 | 3:25.02 | 104661 | 120037
8 | 26:40.38 | 3:39.10 | 120038 | 136472
9 | 30:19.48 | 4:42.47 | 136473 | 157669
10 | 35:02.20 | 4:35.02 | 157670 | 178296
11 | 39:37.22 | 4:57.47 | 178297 | 200618

Характеристики диапазона извлечения и сообщения об ошибках

Выбранный диапазон

Имя файла F:\Sue Foley\Flac\Sue Foley - Walk In The Sun (1996)\Sue Foley - Walk In The Sun.wav

Пиковый уровень 98.8 %
Скорость извлечения 0.7 X
Качество диапазона 100.0 %
CRC копии FAD4D067
Копирование... OK

Ошибок не произошло

Конец отчёта
================
AUDIOCHECKER v2.0 beta (build 457) - by Dester - opdester@freemail.hu
~~~~~~~~~~~~~~~~~~~~~~~~~~~~~~~~~~
-=== НЕ РЕДАКТИРУЙТЕ ЭТОТ ФАЙЛ! ===-

Путь: ...\Sue Foley - Walk In The Sun (1996)

1 -=- Sue Foley - Walk In The Sun.flac -=- CDDA (100%)

257666692[/spoiler]
[spoiler=Track, Spectr, Frequency]
     

[/spoiler]

MP3
Доступно только для пользователей





Чтобы скачать данный материал или оставить комментарий Вам необходимо
зарегистрироваться или войти на сайт под своим логином и паролем.


[ Вход ]

[ Регистрация ]
Не забывайте ставить оценки и комментировать материалы.
Ваше мнение и активность мотивирует к новым публикациям
Категория: Blues | Добавил: igoryok63 | Теги: Sue Foley
Просмотров: 468 | | Рейтинг: 0.0/0
Всего комментариев: 0
Форма входа
Логин:
Пароль:
Поиск в заголовках
Поиск
Ссылки
Copyright MyCorp © 2022