Суббота, 22.01.2022, 22:37 Приветствую Вас Гость | RSS
Категории раздела
Blues [6753]
Jazz [580]
Rock [4400]
Funk, Soul [147]
Fusion, Jazz-Rock [315]
Прочее [729]
Lossless [9289]
Наш баннер
Статистика
Онлайн всего: 1
Гостей: 1
Пользователей: 0

Зарегистрировано: 2392
Новых сегодня: 3
Новых вчера: 2
Новых за неделю: 16
Новых за 30 дней: 49
Сегодня сайт посетили
Сегодня родились

Благотворительная
стимуляция
развития сайта

Z161056227917
R725602230565
U198363340591

Главная » Файлы » Музыка » Blues

Sue Foley - Where The Action Is (2002) [flac]
06.09.2013, 08:29





Краткое знакомство с альбомом:


Исполнитель: Sue Foley
Альбом: Where The Action Is
Год выпуска: 2002
Стиль: Electric Blues
Формат: flac (image, cue, log) / mp3
Битрейт: Lossless / 320kbps
Время звучания: 00:44:19
Размер файла: 327,39 Мb / 110,02 Мb
___________________________

Tracklist:
--------------------------------------
01. Where The Action Is - 3:39  
02. Vertigo Blues - 4:01  
03. Love Disease - 2:35  
04. Two Bluebirds - 4:28  
05. Stupid Girl - 3:27  
06. Let It Go - 3:20  
07. Every Hour - 4:05  
08. Baby Where Are You? - 3:52  
09. Get Yourself Together - 2:56  
10. Roll With Me Henry - 3:29  
11. Down The Big Road Blues - 4:37  
12. Gotta Keep Moving - 3:50

Password in archiv: nota304

[spoiler=Log EAC + AUDIOCHECKER]Exact Audio Copy V1.0 beta 1 from 15. November 2010

Отчёт EAC об извлечении, выполненном 2. сентября 2013, 7:11

Sue Foley / Where The Action Is

Дисковод: HL-DT-STDVDRAM GSA-H44N Adapter: 0 ID: 0

Режим чтения : Достоверность
Использование точного потока : Да
Отключение кэша аудио : Да
Использование указателей C2 : Нет

Коррекция смещения при чтении : 667
Способность читать области Lead-in и Lead-out : Нет
Заполнение пропущенных сэмплов тишиной : Да
Удаление блоков с тишиной в начале и конце : Нет
При вычислениях CRC использовались нулевые сэмплы : Да
Интерфейс : Встроенный Win32-интерфейс для Win NT/2000

Выходной формат : Пользовательский кодировщик
Выбранный битрейт : 1024 kBit/s
Качество : Высокий
Добавление ID3-тега : Нет
Утилита сжатия : C:\Program Files\Exact Audio Copy\FLAC\FLAC.EXE
Дополнительные параметры : -6 -V -T "ARTIST=%a" -T "TITLE=%t" -T "ALBUM=%g" -T "DATE=%y" -T "TRACKNUMBER=%n" -T "GENRE=%m" -T "COMMENT=%e" %j--picture="%i"%j %s -o %d

TOC извлечённого CD

Трек | Старт | Длительность | Начальный сектор | Конечный сектор
---------------------------------------------------------------------
1 | 0:00.00 | 3:41.55 | 0 | 16629
2 | 3:41.55 | 4:03.62 | 16630 | 34916
3 | 7:45.42 | 2:37.17 | 34917 | 46708
4 | 10:22.59 | 4:30.17 | 46709 | 66975
5 | 14:53.01 | 3:29.62 | 66976 | 82712
6 | 18:22.63 | 3:22.10 | 82713 | 97872
7 | 21:44.73 | 4:07.32 | 97873 | 116429
8 | 25:52.30 | 3:54.17 | 116430 | 133996
9 | 29:46.47 | 2:58.17 | 133997 | 147363
10 | 32:44.64 | 3:31.70 | 147364 | 163258
11 | 36:16.59 | 4:40.02 | 163259 | 184260
12 | 40:56.61 | 3:50.70 | 184261 | 201580

Характеристики диапазона извлечения и сообщения об ошибках

Выбранный диапазон

Имя файла F:\Sue Foley\Flac\Sue Foley - Where The Action Is (2002)\1\Sue Foley - Where The Action Is.wav

Пиковый уровень 97.9 %
Скорость извлечения 0.5 X
Качество диапазона 99.9 %
CRC копии 02F1621A
Копирование... OK

Ошибок не произошло

Конец отчёта
================
AUDIOCHECKER v2.0 beta (build 457) - by Dester - opdester@freemail.hu
~~~~~~~~~~~~~~~~~~~~~~~~~~~~~~~~~~
-=== НЕ РЕДАКТИРУЙТЕ ЭТОТ ФАЙЛ! ===-

Путь: ...\Sue Foley - Where The Action Is (2002)

1 -=- Sue Foley - Where The Action Is.flac -=- CDDA (100%)

29109492[/spoiler]
[spoiler=Track, Spectr, Frequency]
     

[/spoiler]

MP3
Доступно только для пользователей





Чтобы скачать данный материал или оставить комментарий Вам необходимо
зарегистрироваться или войти на сайт под своим логином и паролем.


[ Вход ]

[ Регистрация ]
Не забывайте ставить оценки и комментировать материалы.
Ваше мнение и активность мотивирует к новым публикациям
Категория: Blues | Добавил: igoryok63 | Теги: Sue Foley
Просмотров: 477 | Комментарии: 8 | Рейтинг: 0.0/0
Всего комментариев: 8
1 | Scully | Dana Scully (06.09.2013 | 18:32)[Материал]
ссылка на этот коментарий  0   Спам
Выбери себе аватар 
  Спасибо Вам большое
Цитировать

2 | Kuzzya | Юрий (06.09.2013 | 18:39)[Материал]
ссылка на этот коментарий  0   Спам
 
  А что руфолдера не будет? ac
Цитировать

3 | igoryok63 | Игорь (07.09.2013 | 04:25)[Материал]
ссылка на этот коментарий  0   Спам
 
  Опять с ним проблеммы.

Доступно только для пользователей
Цитировать

4 | igoryok63 | Игорь (07.09.2013 | 04:26)[Материал]
ссылка на этот коментарий  0   Спам
 
  Юра, ну есть же депозит с ключами, которые пропадают. Странно, никому не надо.... bn
Цитировать

5 | Kuzzya | Юрий (07.09.2013 | 08:28)[Материал]
ссылка на этот коментарий  0   Спам
 
  так последние ключи были 21 августа bn
Цитировать

6 | igoryok63 | Игорь (07.09.2013 | 11:43)[Материал]
ссылка на этот коментарий  0   Спам
 
  Так остались 2 и 6 часовые. Они все ещё активные. Я постоянно проверяю. Как будут просрочены сразу удалю.
Цитировать

8 | Kuzzya | Юрий (08.09.2013 | 02:03)[Материал]
ссылка на этот коментарий  0   Спам
 
  Спасибо. Думал ключи уже активированы ah
Цитировать

7 | janjean | jan (07.09.2013 | 17:06)[Материал]
ссылка на этот коментарий  0   Спам
Выбери себе аватар 
  Спасибо
Цитировать

Форма входа
Логин:
Пароль:
Поиск в заголовках
Поиск
Ссылки
Copyright MyCorp © 2022