Пятница, 21.01.2022, 21:45 Приветствую Вас Гость | RSS
Категории раздела
Blues [6753]
Jazz [580]
Rock [4399]
Funk, Soul [147]
Fusion, Jazz-Rock [315]
Прочее [729]
Lossless [9288]
Наш баннер
Статистика
Онлайн всего: 1
Гостей: 1
Пользователей: 0

Зарегистрировано: 2389
Новых сегодня: 2
Новых вчера: 2
Новых за неделю: 18
Новых за 30 дней: 47
Сегодня сайт посетили
Сегодня родились

Благотворительная
стимуляция
развития сайта

Z161056227917
R725602230565
U198363340591

Главная » Файлы » Музыка » Blues

Sue Foley - Ten Days In November (1998) [flac]
06.09.2013, 03:55





Краткое знакомство с альбомом:


Исполнитель: Sue Foley
Альбом: Ten Days In November
Год выпуска: 1998
Стиль: Electric Blues
Формат: flac (image, cue, log) / mp3
Битрейт: Lossless / 320kbps
Время звучания: 00:46:17
Размер файла: 343,43 Мb / 114,79 Мb
___________________________

Tracklist:
--------------------------------------
01. Highwayside - 4:08  
02. Baltimore Skyline - 5:14  
03. Long Way To Go - 5:59  
04. The Waiting Game - 2:59  
05. Give My Love To You - 2:37  
06. She Don't Belong To You - 3:46  
07. Through The Night - 4:40  
08. Winds Of Change - 6:35  
09. The Forest - 3:37  
10. Promised Land - 4:09  
11. New Roads - 2:33

Password in archiv: nota304

[spoiler=Log EAC + AUDIOCHECKER]Exact Audio Copy V1.0 beta 1 from 15. November 2010

Отчёт EAC об извлечении, выполненном 1. сентября 2013, 17:26

Sue Foley / Ten Days In November

Дисковод: HL-DT-STDVDRAM GSA-H44N Adapter: 0 ID: 0

Режим чтения : Достоверность
Использование точного потока : Да
Отключение кэша аудио : Да
Использование указателей C2 : Нет

Коррекция смещения при чтении : 667
Способность читать области Lead-in и Lead-out : Нет
Заполнение пропущенных сэмплов тишиной : Да
Удаление блоков с тишиной в начале и конце : Нет
При вычислениях CRC использовались нулевые сэмплы : Да
Интерфейс : Встроенный Win32-интерфейс для Win NT/2000

Выходной формат : Пользовательский кодировщик
Выбранный битрейт : 1024 kBit/s
Качество : Высокий
Добавление ID3-тега : Нет
Утилита сжатия : C:\Program Files\Exact Audio Copy\FLAC\FLAC.EXE
Дополнительные параметры : -6 -V -T "ARTIST=%a" -T "TITLE=%t" -T "ALBUM=%g" -T "DATE=%y" -T "TRACKNUMBER=%n" -T "GENRE=%m" -T "COMMENT=%e" %j--picture="%i"%j %s -o %d

TOC извлечённого CD

Трек | Старт | Длительность | Начальный сектор | Конечный сектор
---------------------------------------------------------------------
1 | 0:00.00 | 4:10.17 | 0 | 18766
2 | 4:10.17 | 5:16.55 | 18767 | 42521
3 | 9:26.72 | 6:01.32 | 42522 | 69628
4 | 15:28.29 | 3:01.40 | 69629 | 83243
5 | 18:29.69 | 2:39.32 | 83244 | 95200
6 | 21:09.26 | 3:48.47 | 95201 | 112347
7 | 24:57.73 | 4:42.62 | 112348 | 133559
8 | 29:40.60 | 6:37.62 | 133560 | 163396
9 | 36:18.47 | 3:39.25 | 163397 | 179846
10 | 39:57.72 | 4:11.32 | 179847 | 198703
11 | 44:09.29 | 2:33.10 | 198704 | 210188

Характеристики диапазона извлечения и сообщения об ошибках

Выбранный диапазон

Имя файла F:\Sue Foley\Flac\Sue Foley - Ten Days In November (1998)\Sue Foley - Ten Days In November.wav

Пиковый уровень 95.8 %
Скорость извлечения 0.3 X
Качество диапазона 100.0 %
CRC копии 6D26A7DD
Копирование... OK

Ошибок не произошло

Конец отчёта
================
AUDIOCHECKER v2.0 beta (build 457) - by Dester - opdester@freemail.hu
~~~~~~~~~~~~~~~~~~~~~~~~~~~~~~~~~~
-=== НЕ РЕДАКТИРУЙТЕ ЭТОТ ФАЙЛ! ===-

Путь: ...\Sue Foley - Ten Days In November (1998)

1 -=- Sue Foley - Ten Days In November.flac -=- CDDA (100%)

120082500[/spoiler]
[spoiler=Track, Spectr, Frequency]
     

[/spoiler]

MP3
Доступно только для пользователей





Чтобы скачать данный материал или оставить комментарий Вам необходимо
зарегистрироваться или войти на сайт под своим логином и паролем.


[ Вход ]

[ Регистрация ]
Не забывайте ставить оценки и комментировать материалы.
Ваше мнение и активность мотивирует к новым публикациям
Категория: Blues | Добавил: igoryok63 | Теги: Sue Foley
Просмотров: 484 | | Рейтинг: 0.0/0
Всего комментариев: 0
Форма входа
Логин:
Пароль:
Поиск в заголовках
Поиск
Ссылки
Copyright MyCorp © 2022