Суббота, 22.01.2022, 22:22 Приветствую Вас Гость | RSS
Категории раздела
Blues [6753]
Jazz [580]
Rock [4400]
Funk, Soul [147]
Fusion, Jazz-Rock [315]
Прочее [729]
Lossless [9289]
Наш баннер
Статистика
Онлайн всего: 3
Гостей: 1
Пользователей: 2
AktivBASS, se-ge

Зарегистрировано: 2392
Новых сегодня: 3
Новых вчера: 2
Новых за неделю: 16
Новых за 30 дней: 49
Сегодня сайт посетили
Сегодня родились

Благотворительная
стимуляция
развития сайта

Z161056227917
R725602230565
U198363340591

Главная » Файлы » Музыка » Blues

Sue Foley - New Used Car (2006) [flac]
09.09.2013, 03:57





Краткое знакомство с альбомом:


Исполнитель: Sue Foley
Альбом: New Used Car
Год выпуска: 2006
Стиль: Electric Blues
Формат: flac (image, cue, log) / mp3
Битрейт: Lossless / 320kbps
Время звучания: 00:44:58
Размер файла: 313,16 Мb / 111,65 Мb
___________________________

Tracklist:
--------------------------------------
01. New Used Car - 4:05  
02. Make It Real - 3:40  
03. When I Come Back To Ya - 4:26  
04. Absolution - 6:12  
05. Sugar - 3:11  
06. Do It Again - 3:09  
07. Mother - 3:36  
08. Long Tomorrow - 3:18  
09. Little Things - 4:03  
10. Found My Love - 3:00  
11. Deep Freeze - 3:16  
12. Change Your Mind - 3:02

Password in archiv: nota304

[spoiler=Log EAC + AUDIOCHECKER]Exact Audio Copy V1.0 beta 1 from 15. November 2010

Отчёт EAC об извлечении, выполненном 6. сентября 2013, 19:04

Sue Foley / New Used Car

Дисковод: HL-DT-STDVDRAM GSA-H44N Adapter: 0 ID: 0

Режим чтения : Достоверность
Использование точного потока : Да
Отключение кэша аудио : Да
Использование указателей C2 : Нет

Коррекция смещения при чтении : 667
Способность читать области Lead-in и Lead-out : Нет
Заполнение пропущенных сэмплов тишиной : Да
Удаление блоков с тишиной в начале и конце : Нет
При вычислениях CRC использовались нулевые сэмплы : Да
Интерфейс : Встроенный Win32-интерфейс для Win NT/2000

Выходной формат : Пользовательский кодировщик
Выбранный битрейт : 1024 kBit/s
Качество : Высокий
Добавление ID3-тега : Нет
Утилита сжатия : C:\Program Files\Exact Audio Copy\FLAC\FLAC.EXE
Дополнительные параметры : -6 -V -T "ARTIST=%a" -T "TITLE=%t" -T "ALBUM=%g" -T "DATE=%y" -T "TRACKNUMBER=%n" -T "GENRE=%m" -T "COMMENT=%e" %j--picture="%i"%j %s -o %d

TOC извлечённого CD

Трек | Старт | Длительность | Начальный сектор | Конечный сектор
---------------------------------------------------------------------
1 | 0:00.00 | 4:07.62 | 0 | 18586
2 | 4:07.62 | 3:42.10 | 18587 | 35246
3 | 7:49.72 | 4:28.55 | 35247 | 55401
4 | 12:18.52 | 6:14.32 | 55402 | 83483
5 | 18:33.09 | 3:13.62 | 83484 | 98020
6 | 21:46.71 | 3:11.70 | 98021 | 112415
7 | 24:58.66 | 3:39.02 | 112416 | 128842
8 | 28:37.68 | 3:20.10 | 128843 | 143852
9 | 31:58.03 | 4:05.55 | 143853 | 162282
10 | 36:03.58 | 3:02.40 | 162283 | 175972
11 | 39:06.23 | 3:18.17 | 175973 | 190839
12 | 42:24.40 | 3:02.55 | 190840 | 204544

Характеристики диапазона извлечения и сообщения об ошибках

Выбранный диапазон

Имя файла F:\Sue Foley\Sue Foley - New Used Car (2006)\1\Sue Foley - New Used Car.wav

Пиковый уровень 98.8 %
Скорость извлечения 0.4 X
Качество диапазона 99.9 %
CRC копии D73D1C95
Копирование... OK

Ошибок не произошло

Конец отчёта
================
AUDIOCHECKER v2.0 beta (build 457) - by Dester - opdester@freemail.hu
~~~~~~~~~~~~~~~~~~~~~~~~~~~~~~~~~~
-=== НЕ РЕДАКТИРУЙТЕ ЭТОТ ФАЙЛ! ===-

Путь: ...\Sue Foley - New Used Car (2006)

1 -=- Sue Foley - New Used Car.flac -=- CDDA (100%)

212466100[/spoiler]
[spoiler=Track, Spectr, Frequency]
     

[/spoiler]

MP3
Доступно только для пользователей





Чтобы скачать данный материал или оставить комментарий Вам необходимо
зарегистрироваться или войти на сайт под своим логином и паролем.


[ Вход ]

[ Регистрация ]
Не забывайте ставить оценки и комментировать материалы.
Ваше мнение и активность мотивирует к новым публикациям
Категория: Blues | Добавил: igoryok63 | Теги: Sue Foley
Просмотров: 511 | | Рейтинг: 0.0/0
Всего комментариев: 0
Форма входа
Логин:
Пароль:
Поиск в заголовках
Поиск
Ссылки
Copyright MyCorp © 2022