Пятница, 21.01.2022, 22:03 Приветствую Вас Гость | RSS
Категории раздела
Blues [6753]
Jazz [580]
Rock [4399]
Funk, Soul [147]
Fusion, Jazz-Rock [315]
Прочее [729]
Lossless [9288]
Наш баннер
Статистика
Онлайн всего: 3
Гостей: 1
Пользователей: 2
vova144ck, aldimeola

Зарегистрировано: 2389
Новых сегодня: 2
Новых вчера: 2
Новых за неделю: 18
Новых за 30 дней: 47
Сегодня сайт посетили
Сегодня родились

Благотворительная
стимуляция
развития сайта

Z161056227917
R725602230565
U198363340591

Главная » Файлы » Музыка » Blues

Sue Foley - Young Girl Blues (1992) [flac]
06.09.2013, 03:28





Краткое знакомство с альбомом:


Исполнитель: Sue Foley
Альбом: Young Girl Blues
Год выпуска: 1992
Стиль: Electric Blues
Формат: flac (image, cue, log) / mp3
Битрейт: Lossless / 320kbps
Время звучания: 00:38:18
Размер файла: 248,37 Мb / 95,20 Мb
___________________________

Tracklist:
--------------------------------------
01. Queen Bee - 4:11  
02. (Me & My) Chauffeur Blues - 2:51  
03. Cuban Getaway - 3:02  
04. Mean Old Lonesome Train - 3:22  
05. Gone Blind - 3:46  
06. Walkin Home - 3:14  
07. But I Forgive You - 2:44  
08. Off The Hook - 4:29  
09. Little Mixed Up - 2:27  
10. Hooked On Love - 2:50  
11. Time To Travel - 5:22

Password in archiv: nota304

[spoiler=Log EAC + AUDIOCHECKER]Exact Audio Copy V1.0 beta 1 from 15. November 2010

Отчёт EAC об извлечении, выполненном 1. сентября 2013, 12:49

Sue Foley / Young Girl Blues

Дисковод: HL-DT-STDVDRAM GSA-H44N Adapter: 0 ID: 0

Режим чтения : Достоверность
Использование точного потока : Да
Отключение кэша аудио : Да
Использование указателей C2 : Нет

Коррекция смещения при чтении : 667
Способность читать области Lead-in и Lead-out : Нет
Заполнение пропущенных сэмплов тишиной : Да
Удаление блоков с тишиной в начале и конце : Нет
При вычислениях CRC использовались нулевые сэмплы : Да
Интерфейс : Встроенный Win32-интерфейс для Win NT/2000

Выходной формат : Пользовательский кодировщик
Выбранный битрейт : 1024 kBit/s
Качество : Высокий
Добавление ID3-тега : Нет
Утилита сжатия : C:\Program Files\Exact Audio Copy\FLAC\FLAC.EXE
Дополнительные параметры : -6 -V -T "ARTIST=%a" -T "TITLE=%t" -T "ALBUM=%g" -T "DATE=%y" -T "TRACKNUMBER=%n" -T "GENRE=%m" -T "COMMENT=%e" %j--picture="%i"%j %s -o %d

TOC извлечённого CD

Трек | Старт | Длительность | Начальный сектор | Конечный сектор
---------------------------------------------------------------------
1 | 0:00.00 | 4:13.25 | 0 | 18999
2 | 4:13.25 | 2:53.70 | 19000 | 32044
3 | 7:07.20 | 3:04.62 | 32045 | 45906
4 | 10:12.07 | 3:24.32 | 45907 | 61238
5 | 13:36.39 | 3:48.47 | 61239 | 78385
6 | 17:25.11 | 3:16.62 | 78386 | 93147
7 | 20:41.73 | 2:46.55 | 93148 | 105652
8 | 23:28.53 | 4:31.55 | 105653 | 126032
9 | 28:00.33 | 2:29.62 | 126033 | 137269
10 | 30:30.20 | 2:52.70 | 137270 | 150239
11 | 33:23.15 | 5:22.32 | 150240 | 174421

Характеристики диапазона извлечения и сообщения об ошибках

Выбранный диапазон

Имя файла F:\Sue Foley\Flac\Sue Foley - Young Girl Blues (1992)\Sue Foley - Young Girl Blues.wav

Пиковый уровень 96.4 %
Скорость извлечения 0.9 X
Качество диапазона 100.0 %
CRC копии E3A7204C
Копирование... OK

Ошибок не произошло

Конец отчёта
================
AUDIOCHECKER v2.0 beta (build 457) - by Dester - opdester@freemail.hu
~~~~~~~~~~~~~~~~~~~~~~~~~~~~~~~~~~
-=== НЕ РЕДАКТИРУЙТЕ ЭТОТ ФАЙЛ! ===-

Путь: ...\Sue Foley - Young Girl Blues (1992)

1 -=- Sue Foley - Young Girl Blues.flac -=- CDDA (99%)

124578852[/spoiler]
[spoiler=Track, Spectr, Frequency]
     

[/spoiler]

MP3
Доступно только для пользователей





Чтобы скачать данный материал или оставить комментарий Вам необходимо
зарегистрироваться или войти на сайт под своим логином и паролем.


[ Вход ]

[ Регистрация ]
Не забывайте ставить оценки и комментировать материалы.
Ваше мнение и активность мотивирует к новым публикациям
Категория: Blues | Добавил: igoryok63 | Теги: Sue Foley
Просмотров: 514 | | Рейтинг: 0.0/0
Всего комментариев: 0
Форма входа
Логин:
Пароль:
Поиск в заголовках
Поиск
Ссылки
Copyright MyCorp © 2022