Пятница, 21.01.2022, 22:59 Приветствую Вас Гость | RSS
Категории раздела
Blues [6753]
Jazz [580]
Rock [4399]
Funk, Soul [147]
Fusion, Jazz-Rock [315]
Прочее [729]
Lossless [9288]
Наш баннер
Статистика
Онлайн всего: 1
Гостей: 1
Пользователей: 0

Зарегистрировано: 2389
Новых сегодня: 2
Новых вчера: 2
Новых за неделю: 18
Новых за 30 дней: 47
Сегодня сайт посетили
Сегодня родились

Благотворительная
стимуляция
развития сайта

Z161056227917
R725602230565
U198363340591

Главная » Файлы » Музыка » Rock

Bob Seger - Back in 72 (1973) [flac]
10.06.2013, 08:13



Краткое знакомство с альбомом:


Исполнитель: Bob Seger
Альбом: Back in 72
Год выпуска: 1973
Стиль: Classic Rock
Формат: flac (image, cue, log) / mp3
Битрейт: Lossless / 320kbps
Время звучания: 00:43:22
Размер файла: 306,86 Мb / 107,48 Мb
___________________________

Tracklist:
--------------------------------------
01. Midnight Rider - 2:44  
02. So I Wrote You a Song - 2:42  
03. Stealer - 2:53  
04. Rosalie - 3:20  
05. Turn The Page - 5:09  
06. Back in '72 - 4:24  
07. Neon Sky - 3:32  
08. i've Been Working - 4:30  
09. i've Got Time - 5:38  
10. Persecution Smith - 3:04  
11. Chain Smokin' - 2:45  
12. Lookin' Back - 2:41

Password in archiv: nota304

[spoiler=Log EAC + AUDIOCHECKER]Exact Audio Copy V1.0 beta 1 from 15. November 2010

Отчёт EAC об извлечении, выполненном 6. июня 2013, 20:39

Bob Seger / Back in 72

Дисковод: HL-DT-STDVDRAM GSA-H44N Adapter: 0 ID: 0

Режим чтения : Достоверность
Использование точного потока : Да
Отключение кэша аудио : Да
Использование указателей C2 : Нет

Коррекция смещения при чтении : 667
Способность читать области Lead-in и Lead-out : Нет
Заполнение пропущенных сэмплов тишиной : Да
Удаление блоков с тишиной в начале и конце : Нет
При вычислениях CRC использовались нулевые сэмплы : Да
Интерфейс : Встроенный Win32-интерфейс для Win NT/2000

Выходной формат : Пользовательский кодировщик
Выбранный битрейт : 1024 kBit/s
Качество : Высокий
Добавление ID3-тега : Нет
Утилита сжатия : C:\Program Files\Exact Audio Copy\FLAC\FLAC.EXE
Дополнительные параметры : -6 -V -T "ARTIST=%a" -T "TITLE=%t" -T "ALBUM=%g" -T "DATE=%y" -T "TRACKNUMBER=%n" -T "GENRE=%m" -T "COMMENT=%e" %j--picture="%i"%j %s -o %d

TOC извлечённого CD

Трек | Старт | Длительность | Начальный сектор | Конечный сектор
---------------------------------------------------------------------
1 | 0:00.00 | 2:46.49 | 0 | 12498
2 | 2:46.49 | 2:44.19 | 12499 | 24817
3 | 5:30.68 | 2:55.23 | 24818 | 37965
4 | 8:26.16 | 3:22.39 | 37966 | 53154
5 | 11:48.55 | 5:11.42 | 53155 | 76521
6 | 17:00.22 | 4:26.04 | 76522 | 96475
7 | 21:26.26 | 3:34.03 | 96476 | 112528
8 | 25:00.29 | 4:32.61 | 112529 | 132989
9 | 29:33.15 | 5:40.20 | 132990 | 158509
10 | 35:13.35 | 3:06.34 | 158510 | 172493
11 | 38:19.69 | 2:47.23 | 172494 | 185041
12 | 41:07.17 | 2:41.24 | 185042 | 197140

Характеристики диапазона извлечения и сообщения об ошибках

Выбранный диапазон

Имя файла F:\Bob Seger\Flac\Bob Seger - Back in 72 (1973)\Bob Seger - Back in 72.wav

Пиковый уровень 97.7 %
Скорость извлечения 0.4 X
Качество диапазона 100.0 %
CRC копии 95B16058
Копирование... OK

Ошибок не произошло

Конец отчёта
=======================
AUDIOCHECKER v2.0 beta (build 457) - by Dester - opdester@freemail.hu
~~~~~~~~~~~~~~~~~~~~~~~~~~~~~~~~~~
-=== НЕ РЕДАКТИРУЙТЕ ЭТОТ ФАЙЛ! ===-

Путь: ...\Bob Seger - Back in 72 (1973)

1 -=- Bob Seger - Back in 72.flac -=- CDDA (99%)

8704996[/spoiler]
[spoiler=Track, Spectr, Frequency]
     

[/spoiler]

MP3
Доступно только для пользователей





Чтобы скачать данный материал или оставить комментарий Вам необходимо
зарегистрироваться или войти на сайт под своим логином и паролем.


[ Вход ]

[ Регистрация ]
Не забывайте ставить оценки и комментировать материалы.
Ваше мнение и активность мотивирует к новым публикациям
Категория: Rock | Добавил: igoryok63 | Теги: Bob Seger
Просмотров: 493 | | Рейтинг: 0.0/0
Всего комментариев: 0
Форма входа
Логин:
Пароль:
Поиск в заголовках
Поиск
Ссылки
Copyright MyCorp © 2022