Пятница, 21.01.2022, 22:18 Приветствую Вас Гость | RSS
Категории раздела
Blues [6753]
Jazz [580]
Rock [4399]
Funk, Soul [147]
Fusion, Jazz-Rock [315]
Прочее [729]
Lossless [9288]
Наш баннер
Статистика
Онлайн всего: 1
Гостей: 1
Пользователей: 0

Зарегистрировано: 2389
Новых сегодня: 2
Новых вчера: 2
Новых за неделю: 18
Новых за 30 дней: 47
Сегодня сайт посетили
Сегодня родились

Благотворительная
стимуляция
развития сайта

Z161056227917
R725602230565
U198363340591

Главная » Файлы » Музыка » Rock

Bob Seger - Beautiful Loser (1975) [flac]
14.06.2013, 02:57



Краткое знакомство с альбомом:


Исполнитель: Bob Seger
Альбом: Beautiful Loser
Год выпуска: 1975
Стиль: Classic Rock
Формат: flac (image, cue, log) / mp3
Битрейт: Lossless / 320kbps
Время звучания: 00:32:57
Размер файла: 214.42 Mb / 81.74 Mb
___________________________

Tracklist:
--------------------------------------
01. Beautiful Loser - 3:29  
02. Black Night - 3:24  
03. Katmandu - 6:09  
04. Jody Girl - 3:41  
05. Travelin' Man - 2:41  
06. Momma - 3:22  
07. Nutbush City Limits - 3:57  
08. Sailing Nights - 3:18  
09. Fine Memory - 2:56

Password in archiv: nota304


[spoiler=Log EAC + AUDIOCHECKER]Exact Audio Copy V1.0 beta 1 from 15. November 2010

Отчёт EAC об извлечении, выполненном 7. июня 2013, 7:15

Bob Seger / Beautiful Loser

Дисковод: HL-DT-STDVDRAM GSA-H44N Adapter: 0 ID: 0

Режим чтения : Достоверность
Использование точного потока : Да
Отключение кэша аудио : Да
Использование указателей C2 : Нет

Коррекция смещения при чтении : 667
Способность читать области Lead-in и Lead-out : Нет
Заполнение пропущенных сэмплов тишиной : Да
Удаление блоков с тишиной в начале и конце : Нет
При вычислениях CRC использовались нулевые сэмплы : Да
Интерфейс : Встроенный Win32-интерфейс для Win NT/2000

Выходной формат : Пользовательский кодировщик
Выбранный битрейт : 1024 kBit/s
Качество : Высокий
Добавление ID3-тега : Нет
Утилита сжатия : C:\Program Files\Exact Audio Copy\FLAC\FLAC.EXE
Дополнительные параметры : -6 -V -T "ARTIST=%a" -T "TITLE=%t" -T "ALBUM=%g" -T "DATE=%y" -T "TRACKNUMBER=%n" -T "GENRE=%m" -T "COMMENT=%e" %j--picture="%i"%j %s -o %d

TOC извлечённого CD

Трек | Старт | Длительность | Начальный сектор | Конечный сектор
---------------------------------------------------------------------
1 | 0:00.00 | 3:29.64 | 0 | 15738
2 | 3:29.64 | 3:23.63 | 15739 | 31026
3 | 6:53.52 | 6:08.61 | 31027 | 58687
4 | 13:02.38 | 3:41.08 | 58688 | 75270
5 | 16:43.46 | 2:40.54 | 75271 | 87324
6 | 19:24.25 | 3:22.26 | 87325 | 102500
7 | 22:46.51 | 3:57.43 | 102501 | 120318
8 | 26:44.19 | 3:18.49 | 120319 | 135217
9 | 30:02.68 | 2:56.70 | 135218 | 148487

Характеристики диапазона извлечения и сообщения об ошибках

Выбранный диапазон

Имя файла F:\Bob Seger\Flac\Bob Seger - Beautiful Loser (1975)\Bob Seger - Beautiful Loser.wav

Пиковый уровень 100.0 %
Скорость извлечения 0.5 X
Качество диапазона 100.0 %
CRC копии 1F36C086
Копирование... OK

Ошибок не произошло

Конец отчёта
=======================
AUDIOCHECKER v2.0 beta (build 457) - by Dester - opdester@freemail.hu
~~~~~~~~~~~~~~~~~~~~~~~~~~~~~~~~~~
-=== НЕ РЕДАКТИРУЙТЕ ЭТОТ ФАЙЛ! ===-

Путь: ...\Bob Seger - Beautiful Loser (1975)

1 -=- Bob Seger - Beautiful Loser.flac -=- CDDA (100%)

32324052[/spoiler]
[spoiler=Track, Spectr, Frequency]
     

[/spoiler]

MP3
Доступно только для пользователей





Чтобы скачать данный материал или оставить комментарий Вам необходимо
зарегистрироваться или войти на сайт под своим логином и паролем.


[ Вход ]

[ Регистрация ]
Не забывайте ставить оценки и комментировать материалы.
Ваше мнение и активность мотивирует к новым публикациям
Категория: Rock | Добавил: igoryok63 | Теги: Bob Seger
Просмотров: 481 | | Рейтинг: 0.0/0
Всего комментариев: 0
Форма входа
Логин:
Пароль:
Поиск в заголовках
Поиск
Ссылки
Copyright MyCorp © 2022