Четверг, 09.12.2021, 02:27 Приветствую Вас Гость | RSS
Категории раздела
Blues [6746]
Jazz [564]
Rock [4377]
Funk, Soul [136]
Fusion, Jazz-Rock [313]
Прочее [725]
Lossless [9247]
Наш баннер
Статистика
Онлайн всего: 1
Гостей: 1
Пользователей: 0

Зарегистрировано: 2324
Новых сегодня: 2
Новых вчера: 4
Новых за неделю: 10
Новых за 30 дней: 50
Сегодня сайт посетили
Сегодня родились

Благотворительная
стимуляция
развития сайта

Z161056227917
R725602230565
U198363340591

Главная » Файлы » Музыка » Rock

Bob Seger & The Silver Bullet Band - Stranger In Town (1978) [flac]
14.06.2013, 08:10



Краткое знакомство с альбомом:


Исполнитель: Bob Seger & The Silver Bullet Band
Альбом: Stranger In Town
Год выпуска: 1978
Стиль: Classic Rock
Формат: flac (image, cue, log) / mp3
Битрейт: Lossless / 320kbps
Время звучания: 00:39:21
Размер файла: 276.55 Mb / 97.59 Mb
___________________________

Tracklist:
--------------------------------------
01. Hollywood Nights - 4:59  
02. Still The Same - 3:18  
03. Old Time Rock & Roll - 3:14  
04. Till It Shines - 3:50  
05. Feel Like A Number - 3:42  
06. Ain't Got No Money - 4:11  
07. We've Got Tonite - 4:38  
08. Brave Strangers - 6:20  
09. The Famous Final Scene - 5:09

Password in archiv: nota304


[spoiler=Log EAC + AUDIOCHECKER]Exact Audio Copy V1.0 beta 1 from 15. November 2010

Отчёт EAC об извлечении, выполненном 7. июня 2013, 20:00

Bob Seger & The Silver Bullet Band / Stranger In Town

Дисковод: HL-DT-STDVDRAM GSA-H44N Adapter: 0 ID: 0

Режим чтения : Достоверность
Использование точного потока : Да
Отключение кэша аудио : Да
Использование указателей C2 : Нет

Коррекция смещения при чтении : 667
Способность читать области Lead-in и Lead-out : Нет
Заполнение пропущенных сэмплов тишиной : Да
Удаление блоков с тишиной в начале и конце : Нет
При вычислениях CRC использовались нулевые сэмплы : Да
Интерфейс : Встроенный Win32-интерфейс для Win NT/2000

Выходной формат : Пользовательский кодировщик
Выбранный битрейт : 1024 kBit/s
Качество : Высокий
Добавление ID3-тега : Нет
Утилита сжатия : C:\Program Files\Exact Audio Copy\FLAC\FLAC.EXE
Дополнительные параметры : -6 -V -T "ARTIST=%a" -T "TITLE=%t" -T "ALBUM=%g" -T "DATE=%y" -T "TRACKNUMBER=%n" -T "GENRE=%m" -T "COMMENT=%e" %j--picture="%i"%j %s -o %d

TOC извлечённого CD

Трек | Старт | Длительность | Начальный сектор | Конечный сектор
---------------------------------------------------------------------
1 | 0:00.00 | 5:01.67 | 0 | 22641
2 | 5:01.67 | 3:20.64 | 22642 | 37705
3 | 8:22.56 | 3:16.29 | 37706 | 52434
4 | 11:39.10 | 3:52.33 | 52435 | 69867
5 | 15:31.43 | 3:44.19 | 69868 | 86686
6 | 19:15.62 | 4:13.39 | 86687 | 105700
7 | 23:29.26 | 4:40.26 | 105701 | 126726
8 | 28:09.52 | 6:22.67 | 126727 | 155443
9 | 34:32.44 | 5:09.28 | 155444 | 178646

Характеристики диапазона извлечения и сообщения об ошибках

Выбранный диапазон

Имя файла F:\Bob Seger\Flac\Bob Seger & The Silver Bullet Band - Stranger In Town (1978)\Bob Seger & The Silver Bullet Band - Stranger In Town.wav

Пиковый уровень 100.0 %
Скорость извлечения 0.8 X
Качество диапазона 100.0 %
CRC копии 50B26104
Копирование... OK

Ошибок не произошло

Конец отчёта
=======================
AUDIOCHECKER v2.0 beta (build 457) - by Dester - opdester@freemail.hu
~~~~~~~~~~~~~~~~~~~~~~~~~~~~~~~~~~
-=== НЕ РЕДАКТИРУЙТЕ ЭТОТ ФАЙЛ! ===-

Путь: ...\Bob Seger & The Silver Bullet Band - Stranger In Town (1978)

1 -=- Bob Seger & The Silver Bullet Band - Stranger In Town.flac -=- CDDA (99%)

39403092[/spoiler]
[spoiler=Track, Spectr, Frequency]
     

[/spoiler]

MP3
Доступно только для пользователей





Чтобы скачать данный материал или оставить комментарий Вам необходимо
зарегистрироваться или войти на сайт под своим логином и паролем.


[ Вход ]

[ Регистрация ]
Не забывайте ставить оценки и комментировать материалы.
Ваше мнение и активность мотивирует к новым публикациям
Категория: Rock | Добавил: igoryok63 | Теги: Bob Seger
Просмотров: 642 | | Рейтинг: 0.0/0
Всего комментариев: 0
Форма входа
Логин:
Пароль:
Поиск в заголовках
Поиск
Ссылки
Copyright MyCorp © 2021