Пятница, 21.01.2022, 23:26 Приветствую Вас Гость | RSS
Категории раздела
Blues [6753]
Jazz [580]
Rock [4399]
Funk, Soul [147]
Fusion, Jazz-Rock [315]
Прочее [729]
Lossless [9288]
Наш баннер
Статистика
Онлайн всего: 1
Гостей: 1
Пользователей: 0

Зарегистрировано: 2389
Новых сегодня: 0
Новых вчера: 2
Новых за неделю: 13
Новых за 30 дней: 47
Сегодня сайт посетили
Сегодня родились

Благотворительная
стимуляция
развития сайта

Z161056227917
R725602230565
U198363340591

Главная » Файлы » Музыка » Rock

Bob Seger - Early Seger, Vol.1 (2009) [flac]
06.06.2013, 16:52



Краткое знакомство с альбомом:


Исполнитель: Bob Seger
Альбом: Early Seger, Vol.1
Год выпуска: 2009
Стиль: Rock
Формат: flac (image, cue, log) / mp3
Битрейт: Lossless / 320kbps
Время звучания: 00:35:17
Размер файла: 251,78 Мb / 89,79 Мb
___________________________

Tracklist:
--------------------------------------
01. Midnight Rider - 2:23  
02. If I Were A Carpenter - 3:49  
03. Get Out Of Denver - 2:45  
04. Someday - 2:33  
05. U.M.C. (Upper Middle Class) - 3:17  
06. Long Song Comin' - 3:50  
07. Star Tonight - 3:40  
08. Gets Ya Pumpin' - 4:09  
09. Wildfire - 4:36  
10. Days When The Rain Would Come - 4:15 

Password in archiv: nota304


[spoiler=Log EAC + AUDIOCHECKER]Exact Audio Copy V1.0 beta 1 from 15. November 2010

Отчёт EAC об извлечении, выполненном 5. июня 2013, 19:47

Bob Seger / Early Seger, Vol.1

Дисковод: HL-DT-STDVDRAM GSA-H44N Adapter: 0 ID: 0

Режим чтения : Достоверность
Использование точного потока : Да
Отключение кэша аудио : Да
Использование указателей C2 : Нет

Коррекция смещения при чтении : 667
Способность читать области Lead-in и Lead-out : Нет
Заполнение пропущенных сэмплов тишиной : Да
Удаление блоков с тишиной в начале и конце : Нет
При вычислениях CRC использовались нулевые сэмплы : Да
Интерфейс : Встроенный Win32-интерфейс для Win NT/2000

Выходной формат : Пользовательский кодировщик
Выбранный битрейт : 1024 kBit/s
Качество : Высокий
Добавление ID3-тега : Нет
Утилита сжатия : C:\Program Files\Exact Audio Copy\FLAC\FLAC.EXE
Дополнительные параметры : -6 -V -T "ARTIST=%a" -T "TITLE=%t" -T "ALBUM=%g" -T "DATE=%y" -T "TRACKNUMBER=%n" -T "GENRE=%m" -T "COMMENT=%e" %j--picture="%i"%j %s -o %d

TOC извлечённого CD

Трек | Старт | Длительность | Начальный сектор | Конечный сектор
---------------------------------------------------------------------
1 | 0:00.00 | 2:25.04 | 0 | 10878
2 | 2:25.04 | 3:51.10 | 10879 | 28213
3 | 6:16.14 | 2:47.47 | 28214 | 40785
4 | 9:03.61 | 2:35.65 | 40786 | 52475
5 | 11:39.51 | 3:19.10 | 52476 | 67410
6 | 14:58.61 | 3:52.31 | 67411 | 84841
7 | 18:51.17 | 3:42.32 | 84842 | 101523
8 | 22:33.49 | 4:11.10 | 101524 | 120358
9 | 26:44.59 | 4:38.68 | 120359 | 141276
10 | 31:23.52 | 4:15.50 | 141277 | 160451

Характеристики диапазона извлечения и сообщения об ошибках

Выбранный диапазон

Имя файла F:\Bob Seger\Flac\Bob Seger - Early Seger, Vol.1 (2009)\Bob Seger - Early Seger, Vol.1.wav

Пиковый уровень 100.0 %
Скорость извлечения 0.7 X
Качество диапазона 99.9 %
CRC копии 9B9097FE
Копирование... OK

Ошибок не произошло

Конец отчёта
=====================
AUDIOCHECKER v2.0 beta (build 457) - by Dester - opdester@freemail.hu
~~~~~~~~~~~~~~~~~~~~~~~~~~~~~~~~~~
-=== НЕ РЕДАКТИРУЙТЕ ЭТОТ ФАЙЛ! ===-

Путь: ...\Bob Seger - Early Seger, Vol.1 (2009)

1 -=- Bob Seger - Early Seger, Vol.1.flac -=- CDDA (99%)

218163412[/spoiler]
[spoiler=Track, Spectr, Frequency]
     

[/spoiler]


MP3
Доступно только для пользователей





Чтобы скачать данный материал или оставить комментарий Вам необходимо
зарегистрироваться или войти на сайт под своим логином и паролем.


[ Вход ]

[ Регистрация ]
Не забывайте ставить оценки и комментировать материалы.
Ваше мнение и активность мотивирует к новым публикациям
Категория: Rock | Добавил: igoryok63 | Теги: Bob Seger
Просмотров: 464 | Комментарии: 1 | Рейтинг: 0.0/0
Всего комментариев: 1
1 | igoryok63 | Игорь (06.06.2013 | 16:54)[Материал]
ссылка на этот коментарий  0   Спам
 
  Альбом нашёл в сети. По картинкам, по логам вроде всё красиво, но звук швах... Упрёки принимаются. ab
Цитировать

Форма входа
Логин:
Пароль:
Поиск в заголовках
Поиск
Ссылки
Copyright MyCorp © 2022