Воскресенье, 28.11.2021, 07:59 Приветствую Вас Гость | RSS
Категории раздела
Blues [6745]
Jazz [563]
Rock [4376]
Funk, Soul [135]
Fusion, Jazz-Rock [312]
Прочее [725]
Lossless [9245]
Наш баннер
Статистика
Онлайн всего: 2
Гостей: 1
Пользователей: 1
AMD

Зарегистрировано: 2308
Новых сегодня: 1
Новых вчера: 3
Новых за неделю: 12
Новых за 30 дней: 63
Сегодня сайт посетили
Сегодня родились

Благотворительная
стимуляция
развития сайта

Z161056227917
R725602230565
U198363340591

Главная » Файлы » Музыка » Rock

Bob Seger & The Silver Bullet Band - The Distance (1982) [flac]
20.06.2013, 16:26



Краткое знакомство с альбомом:


Исполнитель: Bob Seger & The Silver Bullet Band
Альбом: The Distance
Год выпуска: 1982
Стиль: Classic Rock
Формат: flac (image, cue, log) / mp3
Битрейт: Lossless / 320kbps
Время звучания: 00:41:23
Размер файла: 252,00 Мb / 102,47 Мb
___________________________

Tracklist:
--------------------------------------
01. Even Now - 4:33  
02. Makin' Thunderbirds - 3:00  
03. Boomtown Blues - 3:40  
04. Shame On The Moon - 4:58  
05. Love's The Last To Know - 4:29  
06. Roll Me Away - 4:41  
07. House Behind A House - 4:03  
08. Comin' Home - 6:08  
09. Little Victories - 5:51

Password in archiv: nota304


[spoiler=Log EAC + AUDIOCHECKER]Exact Audio Copy V1.0 beta 1 from 15. November 2010

Отчёт EAC об извлечении, выполненном 8. июня 2013, 8:12

Bob Seger & The Silver Bullet Band / The Distance

Дисковод: HL-DT-STDVDRAM GSA-H44N Adapter: 0 ID: 0

Режим чтения : Достоверность
Использование точного потока : Да
Отключение кэша аудио : Да
Использование указателей C2 : Нет

Коррекция смещения при чтении : 667
Способность читать области Lead-in и Lead-out : Нет
Заполнение пропущенных сэмплов тишиной : Да
Удаление блоков с тишиной в начале и конце : Нет
При вычислениях CRC использовались нулевые сэмплы : Да
Интерфейс : Встроенный Win32-интерфейс для Win NT/2000

Выходной формат : Пользовательский кодировщик
Выбранный битрейт : 1024 kBit/s
Качество : Высокий
Добавление ID3-тега : Нет
Утилита сжатия : C:\Program Files\Exact Audio Copy\FLAC\FLAC.EXE
Дополнительные параметры : -6 -V -T "ARTIST=%a" -T "TITLE=%t" -T "ALBUM=%g" -T "DATE=%y" -T "TRACKNUMBER=%n" -T "GENRE=%m" -T "COMMENT=%e" %j--picture="%i"%j %s -o %d

TOC извлечённого CD

Трек | Старт | Длительность | Начальный сектор | Конечный сектор
---------------------------------------------------------------------
1 | 0:00.00 | 4:36.67 | 0 | 20766
2 | 4:36.67 | 3:02.17 | 20767 | 34433
3 | 7:39.09 | 3:42.09 | 34434 | 51092
4 | 11:21.18 | 5:00.01 | 51093 | 73593
5 | 16:21.19 | 4:33.04 | 73594 | 94072
6 | 20:54.23 | 4:42.74 | 94073 | 115296
7 | 25:37.22 | 4:04.69 | 115297 | 133665
8 | 29:42.16 | 6:10.04 | 133666 | 161419
9 | 35:52.20 | 5:51.36 | 161420 | 187780

Характеристики диапазона извлечения и сообщения об ошибках

Выбранный диапазон

Имя файла F:\Bob Seger\Flac\1\Bob Seger & The Silver Bullet Band - The Distance.wav

Пиковый уровень 95.2 %
Скорость извлечения 0.9 X
Качество диапазона 100.0 %
CRC копии F75570C5
Копирование... OK

Ошибок не произошло

Конец отчёта
=======================
AUDIOCHECKER v2.0 beta (build 457) - by Dester - opdester@freemail.hu
~~~~~~~~~~~~~~~~~~~~~~~~~~~~~~~~~~
-=== НЕ РЕДАКТИРУЙТЕ ЭТОТ ФАЙЛ! ===-

Путь: ...\1

1 -=- Bob Seger & The Silver Bullet Band - The Distance.flac -=- CDDA (100%)

149328244[/spoiler]
[spoiler=Track, Spectr, Frequency]
     

[/spoiler]

MP3
Доступно только для пользователей





Чтобы скачать данный материал или оставить комментарий Вам необходимо
зарегистрироваться или войти на сайт под своим логином и паролем.


[ Вход ]

[ Регистрация ]
Не забывайте ставить оценки и комментировать материалы.
Ваше мнение и активность мотивирует к новым публикациям
Категория: Rock | Добавил: igoryok63 | Теги: Bob Seger
Просмотров: 502 | | Рейтинг: 0.0/0
Всего комментариев: 0
Форма входа
Логин:
Пароль:
Поиск в заголовках
Поиск
Ссылки
Copyright MyCorp © 2021