Пятница, 21.01.2022, 22:48 Приветствую Вас Гость | RSS
Категории раздела
Blues [6753]
Jazz [580]
Rock [4399]
Funk, Soul [147]
Fusion, Jazz-Rock [315]
Прочее [729]
Lossless [9288]
Наш баннер
Статистика
Онлайн всего: 1
Гостей: 1
Пользователей: 0

Зарегистрировано: 2389
Новых сегодня: 2
Новых вчера: 2
Новых за неделю: 18
Новых за 30 дней: 47
Сегодня сайт посетили
Сегодня родились

Благотворительная
стимуляция
развития сайта

Z161056227917
R725602230565
U198363340591

Главная » Файлы » Музыка » Rock

Bob Seger - Mongrel (1970) [flac]
06.06.2013, 17:17



Краткое знакомство с альбомом:


Исполнитель: Bob Seger
Альбом: Mongrel
Год выпуска: 1970
Стиль: Rock
Формат: flac (image, cue, log) / mp3
Битрейт: Lossless / 320kbps
Время звучания: 00:33:38
Размер файла: 240,84 Мb / 83,49 Мb
___________________________

Tracklist:
--------------------------------------
01. Song to Rufus - 2:46  
02. Evil Edna - 3:12  
03. Highway Child - 2:50  
04. Big River - 3:10  
05. Mongrel... - 2:22  
06. Lucifer - 2:27  
07. Teachin' Blues - 2:01  
08. Leanin' on My Dream - 3:17  
09. Mongrel too - 4:09  
10. River Deep, Mountain High - 7:24

Password in archiv: nota304



[spoiler=Log EAC + AUDIOCHECKER]Exact Audio Copy V1.0 beta 1 from 15. November 2010

Отчёт EAC об извлечении, выполненном 6. июня 2013, 5:45

Bob Seger / Mongrel

Дисковод: HL-DT-STDVDRAM GSA-H44N Adapter: 0 ID: 0

Режим чтения : Достоверность
Использование точного потока : Да
Отключение кэша аудио : Да
Использование указателей C2 : Нет

Коррекция смещения при чтении : 667
Способность читать области Lead-in и Lead-out : Нет
Заполнение пропущенных сэмплов тишиной : Да
Удаление блоков с тишиной в начале и конце : Нет
При вычислениях CRC использовались нулевые сэмплы : Да
Интерфейс : Встроенный Win32-интерфейс для Win NT/2000

Выходной формат : Пользовательский кодировщик
Выбранный битрейт : 1024 kBit/s
Качество : Высокий
Добавление ID3-тега : Нет
Утилита сжатия : C:\Program Files\Exact Audio Copy\FLAC\FLAC.EXE
Дополнительные параметры : -6 -V -T "ARTIST=%a" -T "TITLE=%t" -T "ALBUM=%g" -T "DATE=%y" -T "TRACKNUMBER=%n" -T "GENRE=%m" -T "COMMENT=%e" %j--picture="%i"%j %s -o %d

TOC извлечённого CD

Трек | Старт | Длительность | Начальный сектор | Конечный сектор
---------------------------------------------------------------------
1 | 0:00.00 | 2:48.17 | 0 | 12616
2 | 2:48.17 | 3:14.40 | 12617 | 27206
3 | 6:02.57 | 2:52.07 | 27207 | 40113
4 | 8:54.64 | 3:12.64 | 40114 | 54577
5 | 12:07.53 | 2:24.50 | 54578 | 65427
6 | 14:32.28 | 2:29.33 | 65428 | 76635
7 | 17:01.61 | 2:03.59 | 76636 | 85919
8 | 19:05.45 | 3:19.21 | 85920 | 100865
9 | 22:24.66 | 4:11.67 | 100866 | 119757
10 | 26:36.58 | 7:24.54 | 119758 | 153111

Характеристики диапазона извлечения и сообщения об ошибках

Выбранный диапазон

Имя файла F:\Bob Seger\Flac\Bob Seger - Mongrel (1970)\Bob Seger - Mongrel.wav

Пиковый уровень 100.0 %
Скорость извлечения 1.4 X
Качество диапазона 100.0 %
CRC копии B37730B4
Копирование... OK

Ошибок не произошло

Конец отчёта
========================
AUDIOCHECKER v2.0 beta (build 457) - by Dester - opdester@freemail.hu
~~~~~~~~~~~~~~~~~~~~~~~~~~~~~~~~~~
-=== НЕ РЕДАКТИРУЙТЕ ЭТОТ ФАЙЛ! ===-

Путь: ...\Bob Seger - Mongrel (1970)

1 -=- Bob Seger - Mongrel.flac -=- CDDA (100%)

212139284[/spoiler]
[spoiler=Track, Spectr, Frequency]
     

[/spoiler]


MP3
Доступно только для пользователей





Чтобы скачать данный материал или оставить комментарий Вам необходимо
зарегистрироваться или войти на сайт под своим логином и паролем.


[ Вход ]

[ Регистрация ]
Не забывайте ставить оценки и комментировать материалы.
Ваше мнение и активность мотивирует к новым публикациям
Категория: Rock | Добавил: igoryok63 | Теги: Bob Seger
Просмотров: 523 | Комментарии: 3 | Рейтинг: 0.0/0
Всего комментариев: 3
1 | igoryok63 | Игорь (06.06.2013 | 17:23)[Материал]
ссылка на этот коментарий  0   Спам
 
  Местами - аля Led Zeppelin
Цитировать

2 | USBS | Юрий (07.06.2013 | 10:12)[Материал]
ссылка на этот коментарий  0   Спам
 
  Спасибо, послушаю, а то до него (Боба Сигера), как-то уши не доходили... ad-1
Цитировать

3 | igoryok63 | Игорь (07.06.2013 | 15:52)[Материал]
ссылка на этот коментарий  0   Спам
 
  Ага Юра. Он у меня долго "не целованный" лежал. Вот добрался.
Цитировать

Форма входа
Логин:
Пароль:
Поиск в заголовках
Поиск
Ссылки
Copyright MyCorp © 2022