Четверг, 09.12.2021, 03:29 Приветствую Вас Гость | RSS
Категории раздела
Blues [6746]
Jazz [564]
Rock [4377]
Funk, Soul [136]
Fusion, Jazz-Rock [313]
Прочее [725]
Lossless [9247]
Наш баннер
Статистика
Онлайн всего: 1
Гостей: 1
Пользователей: 0

Зарегистрировано: 2324
Новых сегодня: 2
Новых вчера: 4
Новых за неделю: 10
Новых за 30 дней: 50
Сегодня сайт посетили
Сегодня родились

Благотворительная
стимуляция
развития сайта

Z161056227917
R725602230565
U198363340591

Главная » Файлы » Музыка » Blues

Bob Seger & The Silver Bullet Band - Live Bullet (1976) [flac]
07.07.2013, 05:50



Краткое знакомство с альбомом:


Исполнитель: Bob Seger & The Silver Bullet Band
Альбом: Live Bullet
Год выпуска: 1976
Стиль: Classic Rock
Формат: flac (image, cue, log) / mp3
Битрейт: Lossless / 320kbps
Время звучания: 01:10:40
Размер файла: 541,19 Мb / 175,09 Мb
___________________________

Tracklist:
--------------------------------------
01. Nutbush City Limits - 4:37  
02. Travelin' Man - 4:53  
03. Beautiful Loser - 4:00  
04. Jody Girl - 4:28  
05. I've Been Working - 4:35  
06. Turn The Page - 5:05  
07. U.M.C. - 3:17  
08. Bo Diddley - 5:40  
09. Ramblin' Gamblin' Man - 3:01  
10. Heavy Music - 8:14  
11. Katmandu - 6:23  
12. Lookin' Back - 2:36  
13. Get Out Of Denver - 5:21  
14. Let It Rock - 8:30  

Password in archiv: nota304

[spoiler=Log EAC + AUDIOCHECKER]Exact Audio Copy V1.0 beta 1 from 15. November 2010

Отчёт EAC об извлечении, выполненном 12. июня 2013, 7:50

Bob Seger & The Silver Bullet Band / Live Bullet

Дисковод: HL-DT-STDVDRAM GSA-H44N Adapter: 0 ID: 0

Режим чтения : Достоверность
Использование точного потока : Да
Отключение кэша аудио : Да
Использование указателей C2 : Нет

Коррекция смещения при чтении : 667
Способность читать области Lead-in и Lead-out : Нет
Заполнение пропущенных сэмплов тишиной : Да
Удаление блоков с тишиной в начале и конце : Нет
При вычислениях CRC использовались нулевые сэмплы : Да
Интерфейс : Встроенный Win32-интерфейс для Win NT/2000

Выходной формат : Пользовательский кодировщик
Выбранный битрейт : 1024 kBit/s
Качество : Высокий
Добавление ID3-тега : Нет
Утилита сжатия : C:\Program Files\Exact Audio Copy\FLAC\FLAC.EXE
Дополнительные параметры : -6 -V -T "ARTIST=%a" -T "TITLE=%t" -T "ALBUM=%g" -T "DATE=%y" -T "TRACKNUMBER=%n" -T "GENRE=%m" -T "COMMENT=%e" %j--picture="%i"%j %s -o %d

TOC извлечённого CD

Трек | Старт | Длительность | Начальный сектор | Конечный сектор
---------------------------------------------------------------------
1 | 0:00.00 | 4:39.11 | 0 | 20935
2 | 4:39.11 | 4:55.37 | 20936 | 43097
3 | 9:34.48 | 4:02.35 | 43098 | 61282
4 | 13:37.08 | 4:30.66 | 61283 | 81598
5 | 18:07.74 | 4:37.21 | 81599 | 102394
6 | 22:45.20 | 5:07.56 | 102395 | 125475
7 | 27:53.01 | 3:19.55 | 125476 | 140455
8 | 31:12.56 | 5:42.15 | 140456 | 166120
9 | 36:54.71 | 3:03.14 | 166121 | 179859
10 | 39:58.10 | 8:16.30 | 179860 | 217089
11 | 48:14.40 | 6:25.58 | 217090 | 246022
12 | 54:40.23 | 2:38.44 | 246023 | 257916
13 | 57:18.67 | 5:23.27 | 257917 | 282168
14 | 62:42.19 | 8:30.14 | 282169 | 320432

Характеристики диапазона извлечения и сообщения об ошибках

Выбранный диапазон

Имя файла F:\Bob Seger\Flac\Bob Seger & The Silver Bullet Band - Live Bullet (1976)\Bob Seger & The Silver Bullet Band - Live Bullet.wav

Пиковый уровень 100.0 %
Скорость извлечения 0.9 X
Качество диапазона 100.0 %
CRC копии BC3B83F4
Копирование... OK

Ошибок не произошло

Конец отчёта
=========================
AUDIOCHECKER v2.0 beta (build 457) - by Dester - opdester@freemail.hu
~~~~~~~~~~~~~~~~~~~~~~~~~~~~~~~~~~
-=== НЕ РЕДАКТИРУЙТЕ ЭТОТ ФАЙЛ! ===-

Путь: ...\Bob Seger & The Silver Bullet Band - Live Bullet (1976)

1 -=- Bob Seger & The Silver Bullet Band - Live Bullet.flac -=- CDDA (100%)

254640580[/spoiler]
[spoiler=Track, Spectr, Frequency]
     

[/spoiler]

MP3
Доступно только для пользователей





Чтобы скачать данный материал или оставить комментарий Вам необходимо
зарегистрироваться или войти на сайт под своим логином и паролем.


[ Вход ]

[ Регистрация ]
Не забывайте ставить оценки и комментировать материалы.
Ваше мнение и активность мотивирует к новым публикациям
Категория: Blues | Добавил: igoryok63 | Теги: Bob Seger
Просмотров: 318 | | Рейтинг: 0.0/0
Всего комментариев: 0
Форма входа
Логин:
Пароль:
Поиск в заголовках
Поиск
Ссылки
Copyright MyCorp © 2021