Пятница, 21.01.2022, 22:54 Приветствую Вас Гость | RSS
Категории раздела
Blues [6753]
Jazz [580]
Rock [4399]
Funk, Soul [147]
Fusion, Jazz-Rock [315]
Прочее [729]
Lossless [9288]
Наш баннер
Статистика
Онлайн всего: 1
Гостей: 1
Пользователей: 0

Зарегистрировано: 2389
Новых сегодня: 2
Новых вчера: 2
Новых за неделю: 18
Новых за 30 дней: 47
Сегодня сайт посетили
Сегодня родились

Благотворительная
стимуляция
развития сайта

Z161056227917
R725602230565
U198363340591

Главная » Файлы » Музыка » Rock

The Bob Seger System - Noah (1969) [flac]
06.06.2013, 17:10



Краткое знакомство с альбомом:


Исполнитель: The Bob Seger System
Альбом: Noah
Год выпуска: 1969
Стиль: Rock
Формат: flac (image, cue, log) / mp3
Битрейт: Lossless / 320kbps
Время звучания: 00:35:17
Размер файла: 238,25 Мb / 87,50 Мb
___________________________

Tracklist:
--------------------------------------
01. Noah - 3:02  
02. Innervenous Eyes - 2:48  
03. Lonely Man - 3:15  
04. Loneliness Is A Feeling - 3:04  
05. Cat - 6:16  
06. Jumpin' Humpin' Hip Hypocrite - 3:13  
07. Follow the Children - 3:29  
08. Lennie Johnson - 3:06  
09. Paint Them A Picture - 4:09  
10. Death Row - 2:55

Password in archiv: nota304



[spoiler=Log EAC + AUDIOCHECKER]Exact Audio Copy V1.0 beta 1 from 15. November 2010

Отчёт EAC об извлечении, выполненном 6. июня 2013, 3:32

The Bob Seger System / Noah (1969)

Дисковод: HL-DT-STDVDRAM GSA-H44N Adapter: 0 ID: 0

Режим чтения : Достоверность
Использование точного потока : Да
Отключение кэша аудио : Да
Использование указателей C2 : Нет

Коррекция смещения при чтении : 667
Способность читать области Lead-in и Lead-out : Нет
Заполнение пропущенных сэмплов тишиной : Да
Удаление блоков с тишиной в начале и конце : Нет
При вычислениях CRC использовались нулевые сэмплы : Да
Интерфейс : Встроенный Win32-интерфейс для Win NT/2000

Выходной формат : Пользовательский кодировщик
Выбранный битрейт : 1024 kBit/s
Качество : Высокий
Добавление ID3-тега : Нет
Утилита сжатия : C:\Program Files\Exact Audio Copy\FLAC\FLAC.EXE
Дополнительные параметры : -6 -V -T "ARTIST=%a" -T "TITLE=%t" -T "ALBUM=%g" -T "DATE=%y" -T "TRACKNUMBER=%n" -T "GENRE=%m" -T "COMMENT=%e" %j--picture="%i"%j %s -o %d

TOC извлечённого CD

Трек | Старт | Длительность | Начальный сектор | Конечный сектор
---------------------------------------------------------------------
1 | 0:00.00 | 3:04.45 | 0 | 13844
2 | 3:04.45 | 2:50.53 | 13845 | 26647
3 | 5:55.23 | 3:17.05 | 26648 | 41427
4 | 9:12.28 | 3:06.11 | 41428 | 55388
5 | 12:18.39 | 6:18.52 | 55389 | 83790
6 | 18:37.16 | 3:15.35 | 83791 | 98450
7 | 21:52.51 | 3:31.40 | 98451 | 114315
8 | 25:24.16 | 3:08.22 | 114316 | 128437
9 | 28:32.38 | 4:11.51 | 128438 | 147313
10 | 32:44.14 | 2:55.20 | 147314 | 160458

Характеристики диапазона извлечения и сообщения об ошибках

Выбранный диапазон

Имя файла F:\Bob Seger\Flac\The Bob Seger System - Noah (1969)\The Bob Seger System - Noah (1969).wav

Пиковый уровень 100.0 %
Скорость извлечения 0.5 X
Качество диапазона 100.0 %
CRC копии 7B973BBE
Копирование... OK

Ошибок не произошло

Конец отчёта
=======================
AUDIOCHECKER v2.0 beta (build 457) - by Dester - opdester@freemail.hu
~~~~~~~~~~~~~~~~~~~~~~~~~~~~~~~~~~
-=== НЕ РЕДАКТИРУЙТЕ ЭТОТ ФАЙЛ! ===-

Путь: ...\The Bob Seger System - Noah (1969)

1 -=- The Bob Seger System - Noah (1969).flac -=- CDDA (100%)

119277748[/spoiler]
[spoiler=Track, Spectr, Frequency]
     

[/spoiler]


MP3
Доступно только для пользователей





Чтобы скачать данный материал или оставить комментарий Вам необходимо
зарегистрироваться или войти на сайт под своим логином и паролем.


[ Вход ]

[ Регистрация ]
Не забывайте ставить оценки и комментировать материалы.
Ваше мнение и активность мотивирует к новым публикациям
Категория: Rock | Добавил: igoryok63 | Теги: Bob Seger
Просмотров: 430 | | Рейтинг: 0.0/0
Всего комментариев: 0
Форма входа
Логин:
Пароль:
Поиск в заголовках
Поиск
Ссылки
Copyright MyCorp © 2022