Пятница, 21.01.2022, 22:24 Приветствую Вас Гость | RSS
Категории раздела
Blues [6753]
Jazz [580]
Rock [4399]
Funk, Soul [147]
Fusion, Jazz-Rock [315]
Прочее [729]
Lossless [9288]
Наш баннер
Статистика
Онлайн всего: 1
Гостей: 1
Пользователей: 0

Зарегистрировано: 2389
Новых сегодня: 2
Новых вчера: 2
Новых за неделю: 18
Новых за 30 дней: 47
Сегодня сайт посетили
Сегодня родились

Благотворительная
стимуляция
развития сайта

Z161056227917
R725602230565
U198363340591

Главная » Файлы » Музыка » Rock

Bob Seger - Face The Promise (2006) [flac]
30.06.2013, 02:22



Краткое знакомство с альбомом:


Исполнитель: Bob Seger
Альбом: Face The Promise
Год выпуска: 2006
Стиль: Classic Rock
Формат: flac (image, cue, log) / mp3
Битрейт: Lossless / 320kbps
Время звучания: 00:42:50
Размер файла: 330,87 Мb / 106,27 Мб
___________________________

Tracklist:
--------------------------------------
01. Wreck This Heart - 3:53  
02. Wait For Me - 3:42  
03. Face The Promise - 3:17  
04. No Matter Who You Are - 3:38  
05. Are You - 3:33  
06. Simplicity - 3:57  
07. No More - 2:57  
08. Real Mean Bottle (With Kid Rock) - 3:02  
09. Won't Stop - 3:19  
10. Between - 4:45  
11. The Answer's In The Question (With Patty Loveless) - 3:40  
12. The Long Goodbye - 3:07

Password in archiv: nota304

[spoiler=Log EAC + AUDIOCHECKER]Exact Audio Copy V1.0 beta 1 from 15. November 2010

Отчёт EAC об извлечении, выполненном 11. июня 2013, 6:53

Bob Segar / Face The Promise

Дисковод: HL-DT-STDVDRAM GSA-H44N Adapter: 0 ID: 0

Режим чтения : Достоверность
Использование точного потока : Да
Отключение кэша аудио : Да
Использование указателей C2 : Нет

Коррекция смещения при чтении : 667
Способность читать области Lead-in и Lead-out : Нет
Заполнение пропущенных сэмплов тишиной : Да
Удаление блоков с тишиной в начале и конце : Нет
При вычислениях CRC использовались нулевые сэмплы : Да
Интерфейс : Встроенный Win32-интерфейс для Win NT/2000

Выходной формат : Пользовательский кодировщик
Выбранный битрейт : 1024 kBit/s
Качество : Высокий
Добавление ID3-тега : Нет
Утилита сжатия : C:\Program Files\Exact Audio Copy\FLAC\FLAC.EXE
Дополнительные параметры : -6 -V -T "ARTIST=%a" -T "TITLE=%t" -T "ALBUM=%g" -T "DATE=%y" -T "TRACKNUMBER=%n" -T "GENRE=%m" -T "COMMENT=%e" %j--picture="%i"%j %s -o %d

TOC извлечённого CD

Трек | Старт | Длительность | Начальный сектор | Конечный сектор
---------------------------------------------------------------------
1 | 0:00.00 | 3:55.68 | 0 | 17692
2 | 3:55.68 | 3:44.60 | 17693 | 34552
3 | 7:40.53 | 3:19.23 | 34553 | 49500
4 | 11:00.01 | 3:40.71 | 49501 | 66071
5 | 14:40.72 | 3:35.22 | 66072 | 82218
6 | 18:16.19 | 3:59.54 | 82219 | 100197
7 | 22:15.73 | 2:59.28 | 100198 | 113650
8 | 25:15.26 | 3:04.49 | 113651 | 127499
9 | 28:20.00 | 3:21.03 | 127500 | 142577
10 | 31:41.03 | 4:47.63 | 142578 | 164165
11 | 36:28.66 | 3:42.11 | 164166 | 180826
12 | 40:11.02 | 3:07.25 | 180827 | 194876

Характеристики диапазона извлечения и сообщения об ошибках

Выбранный диапазон

Имя файла F:\Bob Seger\Flac\Bob Segar - Face The Promise (2006)\Bob Segar - Face The Promise.wav

Пиковый уровень 100.0 %
Скорость извлечения 0.4 X
Качество диапазона 100.0 %
CRC копии F4FC0CD6
Копирование... OK

Ошибок не произошло

Конец отчёта
=======================
AUDIOCHECKER v2.0 beta (build 457) - by Dester - opdester@freemail.hu
~~~~~~~~~~~~~~~~~~~~~~~~~~~~~~~~~~
-=== НЕ РЕДАКТИРУЙТЕ ЭТОТ ФАЙЛ! ===-

Путь: ...\Bob Segar - Face The Promise (2006)

1 -=- Bob Segar - Face The Promise.flac -=- CDDA (100%)

163361668[/spoiler]
[spoiler=Track, Spectr, Frequency]
     

[/spoiler]

MP3
Доступно только для пользователей





Чтобы скачать данный материал или оставить комментарий Вам необходимо
зарегистрироваться или войти на сайт под своим логином и паролем.


[ Вход ]

[ Регистрация ]
Не забывайте ставить оценки и комментировать материалы.
Ваше мнение и активность мотивирует к новым публикациям
Категория: Rock | Добавил: igoryok63 | Теги: Bob Seger
Просмотров: 422 | | Рейтинг: 0.0/0
Всего комментариев: 0
Форма входа
Логин:
Пароль:
Поиск в заголовках
Поиск
Ссылки
Copyright MyCorp © 2022