Четверг, 09.12.2021, 03:52 Приветствую Вас Гость | RSS
Категории раздела
Blues [6746]
Jazz [564]
Rock [4377]
Funk, Soul [136]
Fusion, Jazz-Rock [313]
Прочее [725]
Lossless [9247]
Наш баннер
Статистика
Онлайн всего: 1
Гостей: 1
Пользователей: 0

Зарегистрировано: 2324
Новых сегодня: 2
Новых вчера: 4
Новых за неделю: 10
Новых за 30 дней: 50
Сегодня сайт посетили
Сегодня родились

Благотворительная
стимуляция
развития сайта

Z161056227917
R725602230565
U198363340591

Главная » Файлы » Музыка » Rock

Bob Seger & The Silver Bullet Band - Greatest Hits (1994) [flac]
23.06.2013, 07:41



Краткое знакомство с альбомом:


Исполнитель: Bob Seger & The Silver Bullet Band
Альбом: Greatest Hits
Год выпуска: 1994
Стиль: Classic Rock
Формат: flac (image, cue, log) / mp3
Битрейт: Lossless / 320kbps
Время звучания: 01:02:36
Размер файла: 406,14 Мb / 165,71 Мb
___________________________

Tracklist:
--------------------------------------
01. Roll Me Away - 4:40  
02. Night Moves - 5:25  
03. Turn the Page - 5:03  
04. You'll Accomp'ny Me - 4:00  
05. Hollywood Nights - 5:02  
06. Still the Same - 3:20  
07. Old Time Rock and Roll - 3:14  
08. We've Got Tonight - 4:40  
09. Against the Wind - 5:34  
10. Mainstreet - 3:42  
11. The Fire Inside - 5:55  
12. Like a Rock - 5:55  
13. C'est la Vie - 3:00  
14. In Your Time - 3:06

Password in archiv: nota304

[spoiler=Log EAC + AUDIOCHECKER]Exact Audio Copy V1.0 beta 1 from 15. November 2010

Отчёт EAC об извлечении, выполненном 8. июня 2013, 20:06

Bob Seger & The Silver Bullet Band / Greatest Hits

Дисковод: HL-DT-STDVDRAM GSA-H44N Adapter: 0 ID: 0

Режим чтения : Достоверность
Использование точного потока : Да
Отключение кэша аудио : Да
Использование указателей C2 : Нет

Коррекция смещения при чтении : 667
Способность читать области Lead-in и Lead-out : Нет
Заполнение пропущенных сэмплов тишиной : Да
Удаление блоков с тишиной в начале и конце : Нет
При вычислениях CRC использовались нулевые сэмплы : Да
Интерфейс : Встроенный Win32-интерфейс для Win NT/2000

Выходной формат : Пользовательский кодировщик
Выбранный битрейт : 1024 kBit/s
Качество : Высокий
Добавление ID3-тега : Нет
Утилита сжатия : C:\Program Files\Exact Audio Copy\FLAC\FLAC.EXE
Дополнительные параметры : -6 -V -T "ARTIST=%a" -T "TITLE=%t" -T "ALBUM=%g" -T "DATE=%y" -T "TRACKNUMBER=%n" -T "GENRE=%m" -T "COMMENT=%e" %j--picture="%i"%j %s -o %d

TOC извлечённого CD

Трек | Старт | Длительность | Начальный сектор | Конечный сектор
---------------------------------------------------------------------
1 | 0:00.00 | 4:40.67 | 0 | 21066
2 | 4:40.67 | 5:26.02 | 21067 | 45518
3 | 10:06.69 | 5:04.03 | 45519 | 68321
4 | 15:10.72 | 4:01.32 | 68322 | 86428
5 | 19:12.29 | 5:02.25 | 86429 | 109103
6 | 24:14.54 | 3:21.36 | 109104 | 124214
7 | 27:36.15 | 3:15.20 | 124215 | 138859
8 | 30:51.35 | 4:40.57 | 138860 | 159916
9 | 35:32.17 | 5:34.16 | 159917 | 184982
10 | 41:06.33 | 3:42.73 | 184983 | 201705
11 | 44:49.31 | 5:56.07 | 201706 | 228412
12 | 50:45.38 | 5:55.31 | 228413 | 255068
13 | 56:40.69 | 3:00.18 | 255069 | 268586
14 | 59:41.12 | 3:05.71 | 268587 | 282532

Характеристики диапазона извлечения и сообщения об ошибках

Выбранный диапазон

Имя файла F:\Bob Seger\Flac\1\Bob Seger & The Silver Bullet Band - Greatest Hits.wav

Пиковый уровень 97.9 %
Скорость извлечения 0.3 X
Качество диапазона 100.0 %
CRC копии D92A010B
Копирование... OK

Ошибок не произошло

Конец отчёта
======================
AUDIOCHECKER v2.0 beta (build 457) - by Dester - opdester@freemail.hu
~~~~~~~~~~~~~~~~~~~~~~~~~~~~~~~~~~
-=== НЕ РЕДАКТИРУЙТЕ ЭТОТ ФАЙЛ! ===-

Путь: ...\1

1 -=- Bob Seger & The Silver Bullet Band - Greatest Hits.flac -=- CDDA (100%)

3255204[/spoiler]
[spoiler=Track, Spectr, Frequency]
     

[/spoiler]

MP3
Доступно только для пользователей





Чтобы скачать данный материал или оставить комментарий Вам необходимо
зарегистрироваться или войти на сайт под своим логином и паролем.


[ Вход ]

[ Регистрация ]
Не забывайте ставить оценки и комментировать материалы.
Ваше мнение и активность мотивирует к новым публикациям
Категория: Rock | Добавил: igoryok63 | Теги: Bob Seger
Просмотров: 510 | | Рейтинг: 0.0/0
Всего комментариев: 0
Форма входа
Логин:
Пароль:
Поиск в заголовках
Поиск
Ссылки
Copyright MyCorp © 2021