Четверг, 09.12.2021, 03:49 Приветствую Вас Гость | RSS
Категории раздела
Blues [6746]
Jazz [564]
Rock [4377]
Funk, Soul [136]
Fusion, Jazz-Rock [313]
Прочее [725]
Lossless [9247]
Наш баннер
Статистика
Онлайн всего: 1
Гостей: 1
Пользователей: 0

Зарегистрировано: 2324
Новых сегодня: 2
Новых вчера: 4
Новых за неделю: 10
Новых за 30 дней: 50
Сегодня сайт посетили
Сегодня родились

Благотворительная
стимуляция
развития сайта

Z161056227917
R725602230565
U198363340591

Главная » Файлы » Музыка » Rock

Bob Seger & The Silver Bullet Band - Night Moves (1976) [flac]
14.06.2013, 03:02



Краткое знакомство с альбомом:


Исполнитель: Bob Seger & The Silver Bullet Band
Альбом: Night Moves
Год выпуска: 1976
Стиль: Classic Rock
Формат: flac (image, cue, log) / mp3
Битрейт: Lossless / 320kbps
Время звучания: 00:36:51
Размер файла: 269.09 Mb / 91.4 Mb
___________________________

Tracklist:
--------------------------------------
01. Rock And Roll Never Forgets - 3:53  
02. Night Moves - 5:28  
03. The Fire Down Below - 4:27  
04. Sunburst - 5:13  
05. Sunspot Baby - 4:37  
06. Main Street - 3:42  
07. Come To Poppa - 3:11  
08. Ship Of Fools - 3:25  
09. Mary Lou - 2:55

Password in archiv: nota304

[spoiler=Log EAC + AUDIOCHECKER]Exact Audio Copy V1.0 beta 1 from 15. November 2010

Отчёт EAC об извлечении, выполненном 7. июня 2013, 18:51

Bob Seger & The Silver Bullet Band / Night Moves

Дисковод: HL-DT-STDVDRAM GSA-H44N Adapter: 0 ID: 0

Режим чтения : Достоверность
Использование точного потока : Да
Отключение кэша аудио : Да
Использование указателей C2 : Нет

Коррекция смещения при чтении : 667
Способность читать области Lead-in и Lead-out : Нет
Заполнение пропущенных сэмплов тишиной : Да
Удаление блоков с тишиной в начале и конце : Нет
При вычислениях CRC использовались нулевые сэмплы : Да
Интерфейс : Встроенный Win32-интерфейс для Win NT/2000

Выходной формат : Пользовательский кодировщик
Выбранный битрейт : 1024 kBit/s
Качество : Высокий
Добавление ID3-тега : Нет
Утилита сжатия : C:\Program Files\Exact Audio Copy\FLAC\FLAC.EXE
Дополнительные параметры : -6 -V -T "ARTIST=%a" -T "TITLE=%t" -T "ALBUM=%g" -T "DATE=%y" -T "TRACKNUMBER=%n" -T "GENRE=%m" -T "COMMENT=%e" %j--picture="%i"%j %s -o %d

TOC извлечённого CD

Трек | Старт | Длительность | Начальный сектор | Конечный сектор
---------------------------------------------------------------------
1 | 0:00.00 | 3:52.70 | 0 | 17469
2 | 3:52.70 | 5:26.32 | 17470 | 41951
3 | 9:19.27 | 4:28.55 | 41952 | 62106
4 | 13:48.07 | 5:15.70 | 62107 | 85801
5 | 19:04.02 | 4:37.47 | 85802 | 106623
6 | 23:41.49 | 3:45.17 | 106624 | 123515
7 | 27:26.66 | 3:11.17 | 123516 | 137857
8 | 30:38.08 | 3:23.70 | 137858 | 153152
9 | 34:02.03 | 2:56.70 | 153153 | 166422

Характеристики диапазона извлечения и сообщения об ошибках

Выбранный диапазон

Имя файла F:\Bob Seger\Flac\Bob Seger & The Silver Bullet Band - Night Moves (1976)\Bob Seger & The Silver Bullet Band - Night Moves.wav

Пиковый уровень 99.8 %
Скорость извлечения 0.5 X
Качество диапазона 100.0 %
CRC копии 3D10A619
Копирование... OK

Ошибок не произошло

Конец отчёта
======================
AUDIOCHECKER v2.0 beta (build 457) - by Dester - opdester@freemail.hu
~~~~~~~~~~~~~~~~~~~~~~~~~~~~~~~~~~
-=== НЕ РЕДАКТИРУЙТЕ ЭТОТ ФАЙЛ! ===-

Путь: ...\Bob Seger & The Silver Bullet Band - Night Moves (1976)

1 -=- Bob Seger & The Silver Bullet Band - Night Moves.flac -=- CDDA (99%)

65480356[/spoiler]
[spoiler=Track, Spectr, Frequency]
     

[/spoiler]

MP3
Доступно только для пользователей





Чтобы скачать данный материал или оставить комментарий Вам необходимо
зарегистрироваться или войти на сайт под своим логином и паролем.


[ Вход ]

[ Регистрация ]
Не забывайте ставить оценки и комментировать материалы.
Ваше мнение и активность мотивирует к новым публикациям
Категория: Rock | Добавил: igoryok63 | Теги: Bob Seger
Просмотров: 451 | | Рейтинг: 0.0/0
Всего комментариев: 0
Форма входа
Логин:
Пароль:
Поиск в заголовках
Поиск
Ссылки
Copyright MyCorp © 2021