Воскресенье, 28.11.2021, 08:15 Приветствую Вас Гость | RSS
Категории раздела
Blues [6745]
Jazz [563]
Rock [4376]
Funk, Soul [135]
Fusion, Jazz-Rock [312]
Прочее [725]
Lossless [9245]
Наш баннер
Статистика
Онлайн всего: 2
Гостей: 2
Пользователей: 0

Зарегистрировано: 2308
Новых сегодня: 1
Новых вчера: 3
Новых за неделю: 12
Новых за 30 дней: 63
Сегодня сайт посетили
Сегодня родились

Благотворительная
стимуляция
развития сайта

Z161056227917
R725602230565
U198363340591

Главная » Файлы » Музыка » Rock

Bob Seger & The Silver Bullet Band - Greatest Hits 2 (2003) [flac]
23.06.2013, 07:53



Краткое знакомство с альбомом:


Исполнитель: Bob Seger & The Silver Bullet Band
Альбом: Greatest Hits 2
Год выпуска: 2003
Стиль: Classic Rock
Формат: flac (image, cue, log) / mp3
Битрейт: Lossless / 320kbps
Время звучания: 01:06:58
Размер файла: 497,64 Мb / 165,95 Мb
___________________________

Tracklist:
--------------------------------------
01. Understanding - 3:44  
02. The Fire Down Below - 4:27  
03. Her Strut - 3:51  
04. Beautiful Loser - 3:27  
05. Sunspot Baby - 4:37  
06. Katmandu - 6:09  
07. Shame On The Moon - 4:53  
08. Fire Lake - 3:31  
09. Tryin' To Live My Life Without You (live) - 4:09  
10. Shakedown - 4:03  
11. Manhattan - 5:23  
12. New Coat Of Paint - 3:27  
13. Chances Are - 4:18  
14. Rock And Roll Never Forgets - 3:50  
15. Satisfied - 3:30  
16. Tomorrow - 3:39  

Password in archiv: nota304

[spoiler=Log EAC + AUDIOCHECKER]Exact Audio Copy V1.0 beta 1 from 15. November 2010

Отчёт EAC об извлечении, выполненном 11. июня 2013, 5:50

Bob Seger & The Silver Bullet Band / Greatest Hits 2

Дисковод: HL-DT-STDVDRAM GSA-H44N Adapter: 0 ID: 0

Режим чтения : Достоверность
Использование точного потока : Да
Отключение кэша аудио : Да
Использование указателей C2 : Нет

Коррекция смещения при чтении : 667
Способность читать области Lead-in и Lead-out : Нет
Заполнение пропущенных сэмплов тишиной : Да
Удаление блоков с тишиной в начале и конце : Нет
При вычислениях CRC использовались нулевые сэмплы : Да
Интерфейс : Встроенный Win32-интерфейс для Win NT/2000

Выходной формат : Пользовательский кодировщик
Выбранный битрейт : 1024 kBit/s
Качество : Высокий
Добавление ID3-тега : Нет
Утилита сжатия : C:\Program Files\Exact Audio Copy\FLAC\FLAC.EXE
Дополнительные параметры : -6 -V -T "ARTIST=%a" -T "TITLE=%t" -T "ALBUM=%g" -T "DATE=%y" -T "TRACKNUMBER=%n" -T "GENRE=%m" -T "COMMENT=%e" %j--picture="%i"%j %s -o %d

TOC извлечённого CD

Трек | Старт | Длительность | Начальный сектор | Конечный сектор
---------------------------------------------------------------------
1 | 0:00.00 | 3:46.18 | 0 | 16967
2 | 3:46.18 | 4:29.63 | 16968 | 37205
3 | 8:16.06 | 3:53.12 | 37206 | 54692
4 | 12:09.18 | 3:29.69 | 54693 | 70436
5 | 15:39.12 | 4:39.34 | 70437 | 91395
6 | 20:18.46 | 6:11.13 | 91396 | 119233
7 | 26:29.59 | 4:55.04 | 119234 | 141362
8 | 31:24.63 | 3:33.39 | 141363 | 157376
9 | 34:58.27 | 4:11.48 | 157377 | 176249
10 | 39:10.00 | 4:05.18 | 176250 | 194642
11 | 43:15.18 | 5:25.21 | 194643 | 219038
12 | 48:40.39 | 3:29.41 | 219039 | 234754
13 | 52:10.05 | 4:20.07 | 234755 | 254261
14 | 56:30.12 | 3:52.54 | 254262 | 271715
15 | 60:22.66 | 3:32.26 | 271716 | 287641
16 | 63:55.17 | 3:39.56 | 287642 | 304122

Характеристики диапазона извлечения и сообщения об ошибках

Выбранный диапазон

Имя файла F:\Bob Seger\Flac\Bob Seger & The Silver Bullet Band - Greatest Hits 2 (2003)\Log\Bob Seger & The Silver Bullet Band - Greatest Hits 2.wav

Пиковый уровень 100.0 %
Скорость извлечения 0.4 X
Качество диапазона 100.0 %
CRC копии EB85BFAC
Копирование... OK

Ошибок не произошло

Конец отчёта
======================
AUDIOCHECKER v2.0 beta (build 457) - by Dester - opdester@freemail.hu
~~~~~~~~~~~~~~~~~~~~~~~~~~~~~~~~~~
-=== НЕ РЕДАКТИРУЙТЕ ЭТОТ ФАЙЛ! ===-

Путь: ...\Log

1 -=- Bob Seger & The Silver Bullet Band - Greatest Hits 2.flac -=- CDDA (100%)

52284100[/spoiler]
[spoiler=Track, Spectr, Frequency]
     

[/spoiler]

MP3
Доступно только для пользователей





Чтобы скачать данный материал или оставить комментарий Вам необходимо
зарегистрироваться или войти на сайт под своим логином и паролем.


[ Вход ]

[ Регистрация ]
Не забывайте ставить оценки и комментировать материалы.
Ваше мнение и активность мотивирует к новым публикациям
Категория: Rock | Добавил: igoryok63 | Теги: Bob Seger
Просмотров: 533 | | Рейтинг: 0.0/0
Всего комментариев: 0
Форма входа
Логин:
Пароль:
Поиск в заголовках
Поиск
Ссылки
Copyright MyCorp © 2021