Пятница, 21.01.2022, 21:35 Приветствую Вас Гость | RSS
Категории раздела
Blues [6753]
Jazz [580]
Rock [4399]
Funk, Soul [147]
Fusion, Jazz-Rock [315]
Прочее [729]
Lossless [9288]
Наш баннер
Статистика
Онлайн всего: 1
Гостей: 1
Пользователей: 0

Зарегистрировано: 2389
Новых сегодня: 2
Новых вчера: 2
Новых за неделю: 18
Новых за 30 дней: 47
Сегодня сайт посетили
Сегодня родились

Благотворительная
стимуляция
развития сайта

Z161056227917
R725602230565
U198363340591

Главная » Файлы » Музыка » Rock

The Bob Seger System - Ramblin' Gamblin' Man (1968) [flac]
06.06.2013, 17:04



Краткое знакомство с альбомом:


Исполнитель: The Bob Seger System
Альбом: Ramblin' Gamblin' Man
Год выпуска: 1968
Стиль: Rock
Формат: flac (image, cue, log) / mp3
Битрейт: Lossless / 320kbps
Время звучания: 00:36:40
Размер файла: 237,10 Мb / 90,95 Мb
___________________________

Tracklist:
--------------------------------------
01. Ramblin' Gamblin' Man - 2:21  
02. Tales of Lucy Blue - 2:28  
03. Ivory - 2:23  
04. Gone - 3:28  
05. Down Home - 3:01  
06. Train Man - 4:07  
07. White Wall - 5:20  
08. Black Eyed Girl - 6:34  
09. 2+2=? - 2:49  
10. Doctor fine - 1:05  
11. The Last Song (Love Needs To Be Loved) - 3:04

Password in archiv: nota304

[spoiler=Log EAC + AUDIOCHECKER]Exact Audio Copy V1.0 beta 1 from 15. November 2010

Отчёт EAC об извлечении, выполненном 5. июня 2013, 21:26

Bob Seger / Ramblin' Gamblin' Man

Дисковод: HL-DT-STDVDRAM GSA-H44N Adapter: 0 ID: 0

Режим чтения : Достоверность
Использование точного потока : Да
Отключение кэша аудио : Да
Использование указателей C2 : Нет

Коррекция смещения при чтении : 667
Способность читать области Lead-in и Lead-out : Нет
Заполнение пропущенных сэмплов тишиной : Да
Удаление блоков с тишиной в начале и конце : Нет
При вычислениях CRC использовались нулевые сэмплы : Да
Интерфейс : Встроенный Win32-интерфейс для Win NT/2000

Выходной формат : Пользовательский кодировщик
Выбранный битрейт : 1024 kBit/s
Качество : Высокий
Добавление ID3-тега : Нет
Утилита сжатия : C:\Program Files\Exact Audio Copy\FLAC\FLAC.EXE
Дополнительные параметры : -6 -V -T "ARTIST=%a" -T "TITLE=%t" -T "ALBUM=%g" -T "DATE=%y" -T "TRACKNUMBER=%n" -T "GENRE=%m" -T "COMMENT=%e" %j--picture="%i"%j %s -o %d

TOC извлечённого CD

Трек | Старт | Длительность | Начальный сектор | Конечный сектор
---------------------------------------------------------------------
1 | 0:00.00 | 2:23.23 | 0 | 10747
2 | 2:23.23 | 2:30.40 | 10748 | 22037
3 | 4:53.63 | 2:25.41 | 22038 | 32953
4 | 7:19.29 | 3:30.45 | 32954 | 48748
5 | 10:49.74 | 3:03.71 | 48749 | 62544
6 | 13:53.70 | 4:09.02 | 62545 | 81221
7 | 18:02.72 | 5:22.44 | 81222 | 105415
8 | 23:25.41 | 6:36.01 | 105416 | 135116
9 | 30:01.42 | 2:51.27 | 135117 | 147968
10 | 32:52.69 | 1:07.29 | 147969 | 153022
11 | 34:00.23 | 3:04.56 | 153023 | 166878

Характеристики диапазона извлечения и сообщения об ошибках

Выбранный диапазон

Имя файла F:\Bob Seger\Flac\The Bob Seger System - Ramblin' Gamblin' Man (1968)\Bob Seger - Ramblin' Gamblin' Man.wav

Пиковый уровень 99.4 %
Скорость извлечения 0.5 X
Качество диапазона 100.0 %
CRC копии 6FBCA0EC
Копирование... OK

Ошибок не произошло

Конец отчёта
======================
AUDIOCHECKER v2.0 beta (build 457) - by Dester - opdester@freemail.hu
~~~~~~~~~~~~~~~~~~~~~~~~~~~~~~~~~~
-=== НЕ РЕДАКТИРУЙТЕ ЭТОТ ФАЙЛ! ===-

Путь: ...\The Bob Seger System - Ramblin' Gamblin' Man (1968)

1 -=- Bob Seger - Ramblin' Gamblin' Man.flac -=- CDDA (100%)

39692244[/spoiler]
[spoiler=Track, Spectr, Frequency]
     

[/spoiler]


MP3
Доступно только для пользователей





Чтобы скачать данный материал или оставить комментарий Вам необходимо
зарегистрироваться или войти на сайт под своим логином и паролем.


[ Вход ]

[ Регистрация ]
Не забывайте ставить оценки и комментировать материалы.
Ваше мнение и активность мотивирует к новым публикациям
Категория: Rock | Добавил: igoryok63 | Теги: Bob Seger
Просмотров: 566 | | Рейтинг: 0.0/0
Всего комментариев: 0
Форма входа
Логин:
Пароль:
Поиск в заголовках
Поиск
Ссылки
Copyright MyCorp © 2022