Четверг, 09.12.2021, 02:23 Приветствую Вас Гость | RSS
Категории раздела
Blues [6746]
Jazz [564]
Rock [4377]
Funk, Soul [136]
Fusion, Jazz-Rock [313]
Прочее [725]
Lossless [9247]
Наш баннер
Статистика
Онлайн всего: 1
Гостей: 1
Пользователей: 0

Зарегистрировано: 2324
Новых сегодня: 2
Новых вчера: 4
Новых за неделю: 10
Новых за 30 дней: 50
Сегодня сайт посетили
Сегодня родились

Благотворительная
стимуляция
развития сайта

Z161056227917
R725602230565
U198363340591

Главная » Файлы » Музыка » Rock

Bob Seger & The Silver Bullet Band - The Fire Inside (1991) [flac]
23.06.2013, 07:30



Краткое знакомство с альбомом:


Исполнитель: Bob Seger & The Silver Bullet Band
Альбом: The Fire Inside
Год выпуска: 1991
Стиль: Classic Rock
Формат: flac (image, cue, log) / mp3
Битрейт: Lossless / 320kbps
Время звучания: 00:52:31
Размер файла: 376,23 Мb / 130,18 Мb
___________________________

Tracklist:
--------------------------------------
01. Take A Chance - 3:40  
02. The Real Love - 4:40  
03. Sightseeing - 3:39  
04. Real At The Time - 3:52  
05. Always In My Heart - 4:14  
06. The Fire Inside - 5:56  
07. New Coat Of Paint - 3:25  
08. Which Way - 3:57  
09. The Mountain - 6:45  
10. The Long Way Home - 4:24  
11. Blind Love - 4:22  
12. She Can't Do Anything Wrong - 3:37

Password in archiv: nota304

[spoiler=Log EAC + AUDIOCHECKER]Exact Audio Copy V1.0 beta 1 from 15. November 2010

Отчёт EAC об извлечении, выполненном 8. июня 2013, 11:15

Bob Seger & The Silver Bullet Band / The Fire Inside

Дисковод: HL-DT-STDVDRAM GSA-H44N Adapter: 0 ID: 0

Режим чтения : Достоверность
Использование точного потока : Да
Отключение кэша аудио : Да
Использование указателей C2 : Нет

Коррекция смещения при чтении : 667
Способность читать области Lead-in и Lead-out : Нет
Заполнение пропущенных сэмплов тишиной : Да
Удаление блоков с тишиной в начале и конце : Нет
При вычислениях CRC использовались нулевые сэмплы : Да
Интерфейс : Встроенный Win32-интерфейс для Win NT/2000

Выходной формат : Пользовательский кодировщик
Выбранный битрейт : 1024 kBit/s
Качество : Высокий
Добавление ID3-тега : Нет
Утилита сжатия : C:\Program Files\Exact Audio Copy\FLAC\FLAC.EXE
Дополнительные параметры : -6 -V -T "ARTIST=%a" -T "TITLE=%t" -T "ALBUM=%g" -T "DATE=%y" -T "TRACKNUMBER=%n" -T "GENRE=%m" -T "COMMENT=%e" %j--picture="%i"%j %s -o %d

TOC извлечённого CD

Трек | Старт | Длительность | Начальный сектор | Конечный сектор
---------------------------------------------------------------------
1 | 0:00.00 | 3:42.44 | 0 | 16693
2 | 3:42.44 | 4:42.01 | 16694 | 37844
3 | 8:24.45 | 3:41.35 | 37845 | 54454
4 | 12:06.05 | 3:54.63 | 54455 | 72067
5 | 16:00.68 | 4:16.08 | 72068 | 91275
6 | 20:17.01 | 5:58.42 | 91276 | 118167
7 | 26:15.43 | 3:27.54 | 118168 | 133746
8 | 29:43.22 | 3:59.37 | 133747 | 151708
9 | 33:42.59 | 6:47.03 | 151709 | 182236
10 | 40:29.62 | 4:26.39 | 182237 | 202225
11 | 44:56.26 | 4:24.56 | 202226 | 222081
12 | 49:21.07 | 3:37.67 | 222082 | 238423

Характеристики диапазона извлечения и сообщения об ошибках

Выбранный диапазон

Имя файла F:\Bob Seger\Flac\Bob Seger & The Silver Bullet Band - The Fire Inside (1991)\Bob Seger & The Silver Bullet Band - The Fire Inside.wav

Пиковый уровень 100.0 %
Скорость извлечения 0.4 X
Качество диапазона 100.0 %
CRC копии 4EEFA303
Копирование... OK

Ошибок не произошло

Конец отчёта
======================
AUDIOCHECKER v2.0 beta (build 457) - by Dester - opdester@freemail.hu
~~~~~~~~~~~~~~~~~~~~~~~~~~~~~~~~~~
-=== НЕ РЕДАКТИРУЙТЕ ЭТОТ ФАЙЛ! ===-

Путь: ...\Bob Seger & The Silver Bullet Band - The Fire Inside (1991)

1 -=- Bob Seger & The Silver Bullet Band - The Fire Inside.flac -=- CDDA (100%)

161251556[/spoiler]
[spoiler=Track, Spectr, Frequency]
     

[/spoiler]

MP3
Доступно только для пользователей





Чтобы скачать данный материал или оставить комментарий Вам необходимо
зарегистрироваться или войти на сайт под своим логином и паролем.


[ Вход ]

[ Регистрация ]
Не забывайте ставить оценки и комментировать материалы.
Ваше мнение и активность мотивирует к новым публикациям
Категория: Rock | Добавил: igoryok63 | Теги: Bob Seger
Просмотров: 370 | | Рейтинг: 0.0/0
Всего комментариев: 0
Форма входа
Логин:
Пароль:
Поиск в заголовках
Поиск
Ссылки
Copyright MyCorp © 2021