Пятница, 21.01.2022, 22:53 Приветствую Вас Гость | RSS
Категории раздела
Blues [6753]
Jazz [580]
Rock [4399]
Funk, Soul [147]
Fusion, Jazz-Rock [315]
Прочее [729]
Lossless [9288]
Наш баннер
Статистика
Онлайн всего: 1
Гостей: 1
Пользователей: 0

Зарегистрировано: 2389
Новых сегодня: 2
Новых вчера: 2
Новых за неделю: 18
Новых за 30 дней: 47
Сегодня сайт посетили
Сегодня родились

Благотворительная
стимуляция
развития сайта

Z161056227917
R725602230565
U198363340591

Главная » Файлы » Музыка » Blues

Bob Seger - Lookin' Back-The Box (2010) [flac]
07.07.2013, 06:12



Краткое знакомство с альбомом:


Исполнитель: Bob Seger
Альбом: Lookin' Back-The Box
Год выпуска: 2010
Стиль: Classic Rock
Формат: flac (image, cue, log) / mp3
Битрейт: Lossless / 320kbps
Время звучания: 03:01:36
Размер файла: 943.38Mb / 445,20 Мb
___________________________

Tracklist:
--------------------------------------


Password in archiv: nota304

[spoiler=CD1 Log EAC + AUDIOCHECKER]Exact Audio Copy V1.0 beta 1 from 15. November 2010

Отчёт EAC об извлечении, выполненном 12. июня 2013, 17:02

Bob Seger / Lookin' Back-The Box [disk 1]

Дисковод: HL-DT-STDVDRAM GSA-H44N Adapter: 0 ID: 0

Режим чтения : Достоверность
Использование точного потока : Да
Отключение кэша аудио : Да
Использование указателей C2 : Нет

Коррекция смещения при чтении : 667
Способность читать области Lead-in и Lead-out : Нет
Заполнение пропущенных сэмплов тишиной : Да
Удаление блоков с тишиной в начале и конце : Нет
При вычислениях CRC использовались нулевые сэмплы : Да
Интерфейс : Встроенный Win32-интерфейс для Win NT/2000

Выходной формат : Пользовательский кодировщик
Выбранный битрейт : 1024 kBit/s
Качество : Высокий
Добавление ID3-тега : Нет
Утилита сжатия : C:\Program Files\Exact Audio Copy\FLAC\FLAC.EXE
Дополнительные параметры : -6 -V -T "ARTIST=%a" -T "TITLE=%t" -T "ALBUM=%g" -T "DATE=%y" -T "TRACKNUMBER=%n" -T "GENRE=%m" -T "COMMENT=%e" %j--picture="%i"%j %s -o %d

TOC извлечённого CD

Трек | Старт | Длительность | Начальный сектор | Конечный сектор
---------------------------------------------------------------------
1 | 0:00.00 | 5:19.71 | 0 | 23995
2 | 5:19.71 | 4:45.11 | 23996 | 45381
3 | 10:05.07 | 2:36.67 | 45382 | 57148
4 | 12:41.74 | 2:35.71 | 57149 | 68844
5 | 15:17.70 | 2:38.48 | 68845 | 80742
6 | 17:56.43 | 2:33.49 | 80743 | 92266
7 | 20:30.17 | 2:38.52 | 92267 | 104168
8 | 23:08.69 | 2:44.48 | 104169 | 116516
9 | 25:53.42 | 2:42.10 | 116517 | 128676
10 | 28:35.52 | 3:14.18 | 128677 | 143244
11 | 31:49.70 | 7:42.51 | 143245 | 177945
12 | 39:32.46 | 1:00.43 | 177946 | 182488
13 | 40:33.14 | 4:13.29 | 182489 | 201492
14 | 44:46.43 | 7:44.73 | 201493 | 236365
15 | 52:31.41 | 4:25.46 | 236366 | 256286
16 | 56:57.12 | 2:36.48 | 256287 | 268034

Характеристики диапазона извлечения и сообщения об ошибках

Выбранный диапазон

Имя файла F:\Bob Seger\Flac\Bob Seger - Lookin' Back-The Box (2010)\CD1\Bob Seger - Lookin' Back-The Box [disk 1].wav

Пиковый уровень 100.0 %
Скорость извлечения 0.3 X
Качество диапазона 100.0 %
CRC копии 955B24A2
Копирование... OK

Ошибок не произошло

Конец отчёта
======================
AUDIOCHECKER v2.0 beta (build 457) - by Dester - opdester@freemail.hu
~~~~~~~~~~~~~~~~~~~~~~~~~~~~~~~~~~
-=== НЕ РЕДАКТИРУЙТЕ ЭТОТ ФАЙЛ! ===-

Путь: ...\CD1

1 -=- Bob Seger - Lookin' Back-The Box [disk 1].flac -=- CDDA (100%)

260527924[/spoiler]
[spoiler=CD1 Track, Spectr, Frequency]
     

[/spoiler]

[spoiler=CD2 Log EAC + AUDIOCHECKER]Exact Audio Copy V1.0 beta 1 from 15. November 2010

Отчёт EAC об извлечении, выполненном 13. июня 2013, 6:26

Bob Seger / Lookin' Back-The Box [disk 2]

Дисковод: HL-DT-STDVDRAM GSA-H44N Adapter: 0 ID: 0

Режим чтения : Достоверность
Использование точного потока : Да
Отключение кэша аудио : Да
Использование указателей C2 : Нет

Коррекция смещения при чтении : 667
Способность читать области Lead-in и Lead-out : Нет
Заполнение пропущенных сэмплов тишиной : Да
Удаление блоков с тишиной в начале и конце : Нет
При вычислениях CRC использовались нулевые сэмплы : Да
Интерфейс : Встроенный Win32-интерфейс для Win NT/2000

Выходной формат : Пользовательский кодировщик
Выбранный битрейт : 1024 kBit/s
Качество : Высокий
Добавление ID3-тега : Нет
Утилита сжатия : C:\Program Files\Exact Audio Copy\FLAC\FLAC.EXE
Дополнительные параметры : -6 -V -T "ARTIST=%a" -T "TITLE=%t" -T "ALBUM=%g" -T "DATE=%y" -T "TRACKNUMBER=%n" -T "GENRE=%m" -T "COMMENT=%e" %j--picture="%i"%j %s -o %d

TOC извлечённого CD

Трек | Старт | Длительность | Начальный сектор | Конечный сектор
---------------------------------------------------------------------
1 | 0:00.00 | 2:56.69 | 0 | 13268
2 | 2:56.69 | 1:00.29 | 13269 | 17797
3 | 3:57.23 | 2:33.70 | 17798 | 29342
4 | 6:31.18 | 4:07.13 | 29343 | 47880
5 | 10:38.31 | 2:36.47 | 47881 | 59627
6 | 13:15.03 | 2:16.50 | 59628 | 69877
7 | 15:31.53 | 1:57.12 | 69878 | 78664
8 | 17:28.65 | 1:02.40 | 78665 | 83354
9 | 18:31.30 | 0:48.42 | 83355 | 86996
10 | 19:19.72 | 4:19.18 | 86997 | 106439
11 | 23:39.15 | 3:00.63 | 106440 | 120002
12 | 26:40.03 | 3:41.52 | 120003 | 136629
13 | 30:21.55 | 5:05.10 | 136630 | 159514
14 | 35:26.65 | 4:45.64 | 159515 | 180953
15 | 40:12.54 | 4:46.13 | 180954 | 202416
16 | 44:58.67 | 4:52.01 | 202417 | 224317
17 | 49:50.68 | 4:42.07 | 224318 | 245474
18 | 54:33.00 | 0:52.01 | 245475 | 249375

Характеристики диапазона извлечения и сообщения об ошибках

Выбранный диапазон

Имя файла F:\Bob Seger\Flac\Bob Seger - Lookin' Back-The Box (2010)\CD2\Bob Seger - Lookin' Back-The Box [disk 2].wav

Пиковый уровень 99.9 %
Скорость извлечения 0.1 X
Качество диапазона 100.0 %
CRC копии 8AACF7FF
Копирование... OK

Ошибок не произошло

Конец отчёта
=======================
AUDIOCHECKER v2.0 beta (build 457) - by Dester - opdester@freemail.hu
~~~~~~~~~~~~~~~~~~~~~~~~~~~~~~~~~~
-=== НЕ РЕДАКТИРУЙТЕ ЭТОТ ФАЙЛ! ===-

Путь: ...\CD2

1 -=- Bob Seger - Lookin' Back-The Box [disk 2].flac -=- CDDA (100%)

260069172[/spoiler]
[spoiler=CD2 Track, Spectr, Frequency]
      

[/spoiler]

[spoiler=CD3 Log EAC + AUDIOCHECKER]Exact Audio Copy V1.0 beta 1 from 15. November 2010

Отчёт EAC об извлечении, выполненном 13. июня 2013, 7:39

Bob Seger / Lookin' Back-The Box [disk 3]

Дисковод: HL-DT-STDVDRAM GSA-H44N Adapter: 0 ID: 0

Режим чтения : Достоверность
Использование точного потока : Да
Отключение кэша аудио : Да
Использование указателей C2 : Нет

Коррекция смещения при чтении : 667
Способность читать области Lead-in и Lead-out : Нет
Заполнение пропущенных сэмплов тишиной : Да
Удаление блоков с тишиной в начале и конце : Нет
При вычислениях CRC использовались нулевые сэмплы : Да
Интерфейс : Встроенный Win32-интерфейс для Win NT/2000

Выходной формат : Пользовательский кодировщик
Выбранный битрейт : 1024 kBit/s
Качество : Высокий
Добавление ID3-тега : Нет
Утилита сжатия : C:\Program Files\Exact Audio Copy\FLAC\FLAC.EXE
Дополнительные параметры : -6 -V -T "ARTIST=%a" -T "TITLE=%t" -T "ALBUM=%g" -T "DATE=%y" -T "TRACKNUMBER=%n" -T "GENRE=%m" -T "COMMENT=%e" %j--picture="%i"%j %s -o %d

TOC извлечённого CD

Трек | Старт | Длительность | Начальный сектор | Конечный сектор
---------------------------------------------------------------------
1 | 0:00.00 | 3:38.40 | 0 | 16389
2 | 3:38.40 | 3:49.58 | 16390 | 33622
3 | 7:28.23 | 2:53.38 | 33623 | 46635
4 | 10:21.61 | 1:54.62 | 46636 | 55247
5 | 12:16.48 | 4:17.09 | 55248 | 74531
6 | 16:33.57 | 4:29.32 | 74532 | 94738
7 | 21:03.14 | 2:52.64 | 94739 | 107702
8 | 23:56.03 | 2:04.57 | 107703 | 117059
9 | 26:00.60 | 3:15.25 | 117060 | 131709
10 | 29:16.10 | 3:59.48 | 131710 | 149682
11 | 33:15.58 | 7:43.58 | 149683 | 184465
12 | 40:59.41 | 4:30.02 | 184466 | 204717
13 | 45:29.43 | 4:32.32 | 204718 | 225149
14 | 50:02.00 | 4:20.17 | 225150 | 244666
15 | 54:22.17 | 1:35.10 | 244667 | 251801
16 | 55:57.27 | 2:41.15 | 251802 | 263891
17 | 58:38.42 | 3:35.42 | 263892 | 280058
18 | 62:14.09 | 4:23.52 | 280059 | 299835

Характеристики диапазона извлечения и сообщения об ошибках

Выбранный диапазон

Имя файла F:\Bob Seger\Flac\Bob Seger - Lookin' Back-The Box (2010)\CD3\Bob Seger - Lookin' Back-The Box [disk 3].wav

Пиковый уровень 100.0 %
Скорость извлечения 0.4 X
Качество диапазона 100.0 %
CRC копии FB773920
Копирование... OK

Ошибок не произошло

Конец отчёта
=======================
AUDIOCHECKER v2.0 beta (build 457) - by Dester - opdester@freemail.hu
~~~~~~~~~~~~~~~~~~~~~~~~~~~~~~~~~~
-=== НЕ РЕДАКТИРУЙТЕ ЭТОТ ФАЙЛ! ===-

Путь: ...\CD3

1 -=- Bob Seger - Lookin' Back-The Box [disk 3].flac -=- CDDA (99%)

66596580[/spoiler]
[spoiler=CD3 Track, Spectr, Frequency]
     

[/spoiler]

MP3
Доступно только для пользователей





Чтобы скачать данный материал или оставить комментарий Вам необходимо
зарегистрироваться или войти на сайт под своим логином и паролем.


[ Вход ]

[ Регистрация ]
Не забывайте ставить оценки и комментировать материалы.
Ваше мнение и активность мотивирует к новым публикациям
Категория: Blues | Добавил: igoryok63 | Теги: Bob Seger
Просмотров: 398 | Комментарии: 3 | Рейтинг: 0.0/0
Всего комментариев: 3
1 | mvp33 | Petrovich (07.07.2013 | 17:10)[Материал]
ссылка на этот коментарий  0   Спам
Выбери себе аватар 
  Вай! На РусВолдыре вместо СД3 лежит: 1981 Bob Seger & The Silver Bullet Band - Nine Tonight МП3, соответственно вместо которого лежит битый архив СД3
Цитировать

2 | igoryok63 | Игорь (08.07.2013 | 02:37)[Материал]
ссылка на этот коментарий  0   Спам
 
  Спасибо, что заметили. fm
Этот Русфолдер уже забадал. Как эта морда меняет содержимое архивов... bn при этом название архива остаётся правильным.
Оба материала поправил. Ещё раз спасибо.
Цитировать

3 | mvp33 | Petrovich (08.07.2013 | 04:29)[Материал]
ссылка на этот коментарий  0   Спам
Выбери себе аватар 
  А вам спасибо за музыку и терпение
Цитировать

Форма входа
Логин:
Пароль:
Поиск в заголовках
Поиск
Ссылки
Copyright MyCorp © 2022