Четверг, 09.12.2021, 02:52 Приветствую Вас Гость | RSS
Категории раздела
Blues [6746]
Jazz [564]
Rock [4377]
Funk, Soul [136]
Fusion, Jazz-Rock [313]
Прочее [725]
Lossless [9247]
Наш баннер
Статистика
Онлайн всего: 3
Гостей: 1
Пользователей: 2
dripdrprince, Alex1985

Зарегистрировано: 2324
Новых сегодня: 2
Новых вчера: 4
Новых за неделю: 10
Новых за 30 дней: 50
Сегодня сайт посетили
Сегодня родились

Благотворительная
стимуляция
развития сайта

Z161056227917
R725602230565
U198363340591

Главная » Файлы » Музыка » Blues

Bob Seger & The Silver Bullet Band - Ultimate Hits: Rock and Roll Never Forgets (2011) [flac]
07.07.2013, 06:21



Краткое знакомство с альбомом:


Исполнитель: Bob Seger & The Silver Bullet Band
Альбом: Ultimate Hits: Rock and Roll Never Forgets
Год выпуска: 2011
Стиль: Classic Rock
Формат: flac (image, cue, log) / mp3
Битрейт: Lossless / 320kbps
Время звучания: 00:56:01
Размер файла: 414,79 Мb / 410,09 Мb / 267,55 Мb
___________________________

Tracklist:
--------------------------------------



Password in archiv: nota304

[spoiler=CD1 Log EAC + AUDIOCHECKER]Exact Audio Copy V1.0 beta 1 from 15. November 2010

Отчёт EAC об извлечении, выполненном 13. июня 2013, 20:21

Bob Seger & The Silver Bullet Band / Ultimate Hits: Rock and Roll Never Forgets [disk 1]

Дисковод: HL-DT-STDVDRAM GSA-H44N Adapter: 0 ID: 0

Режим чтения : Достоверность
Использование точного потока : Да
Отключение кэша аудио : Да
Использование указателей C2 : Нет

Коррекция смещения при чтении : 667
Способность читать области Lead-in и Lead-out : Нет
Заполнение пропущенных сэмплов тишиной : Да
Удаление блоков с тишиной в начале и конце : Нет
При вычислениях CRC использовались нулевые сэмплы : Да
Интерфейс : Встроенный Win32-интерфейс для Win NT/2000

Выходной формат : Пользовательский кодировщик
Выбранный битрейт : 1024 kBit/s
Качество : Высокий
Добавление ID3-тега : Нет
Утилита сжатия : C:\Program Files\Exact Audio Copy\FLAC\FLAC.EXE
Дополнительные параметры : -6 -V -T "ARTIST=%a" -T "TITLE=%t" -T "ALBUM=%g" -T "DATE=%y" -T "TRACKNUMBER=%n" -T "GENRE=%m" -T "COMMENT=%e" %j--picture="%i"%j %s -o %d

TOC извлечённого CD

Трек | Старт | Длительность | Начальный сектор | Конечный сектор
---------------------------------------------------------------------
1 | 0:00.00 | 3:16.55 | 0 | 14754
2 | 3:16.55 | 5:04.32 | 14755 | 37586
3 | 8:21.12 | 5:26.40 | 37587 | 62076
4 | 13:47.52 | 3:45.10 | 62077 | 78961
5 | 17:32.62 | 4:41.55 | 78962 | 100091
6 | 22:14.42 | 5:15.10 | 100092 | 123726
7 | 27:29.52 | 3:55.32 | 123727 | 141383
8 | 31:25.09 | 3:25.55 | 141384 | 156813
9 | 34:50.64 | 4:02.25 | 156814 | 174988
10 | 38:53.14 | 3:42.10 | 174989 | 191648
11 | 42:35.24 | 5:59.10 | 191649 | 218583
12 | 48:34.34 | 3:35.10 | 218584 | 234718
13 | 52:09.44 | 4:08.62 | 234719 | 253380

Характеристики диапазона извлечения и сообщения об ошибках

Выбранный диапазон

Имя файла F:\Bob Seger\Flac\Bob Seger & The Silver Bullet - Ultimate Hits Rock and Roll Never Forgets (2011)\CD1\Bob Seger & The Silver Bullet Band - Ultimate Hits- Rock and Roll Never Forgets [disk 1].wav

Пиковый уровень 100.0 %
Скорость извлечения 0.5 X
Качество диапазона 99.9 %
CRC копии 48481230
Копирование... OK

Ошибок не произошло

Конец отчёта
=======================
AUDIOCHECKER v2.0 beta (build 457) - by Dester - opdester@freemail.hu
~~~~~~~~~~~~~~~~~~~~~~~~~~~~~~~~~~
-=== НЕ РЕДАКТИРУЙТЕ ЭТОТ ФАЙЛ! ===-

Путь: ...\CD1

1 -=- Bob Seger & The Silver Bullet Band - Ultimate Hits- Rock and Roll Never Forgets [disk 1].flac -=- CDDA (100%)

1747172[/spoiler]
[spoiler=CD1 Track, Spectr, Frequency]
     

[/spoiler]

[spoiler=CD2 Log EAC + AUDIOCHECKER]Exact Audio Copy V1.0 beta 1 from 15. November 2010

Отчёт EAC об извлечении, выполненном 14. июня 2013, 4:47

Bob Seger & The Silver Bullet Band / Ultimate Hits: Rock and Roll Never Forgets [disk 2]

Дисковод: HL-DT-STDVDRAM GSA-H44N Adapter: 0 ID: 0

Режим чтения : Достоверность
Использование точного потока : Да
Отключение кэша аудио : Да
Использование указателей C2 : Нет

Коррекция смещения при чтении : 667
Способность читать области Lead-in и Lead-out : Нет
Заполнение пропущенных сэмплов тишиной : Да
Удаление блоков с тишиной в начале и конце : Нет
При вычислениях CRC использовались нулевые сэмплы : Да
Интерфейс : Встроенный Win32-интерфейс для Win NT/2000

Выходной формат : Пользовательский кодировщик
Выбранный битрейт : 1024 kBit/s
Качество : Высокий
Добавление ID3-тега : Нет
Утилита сжатия : C:\Program Files\Exact Audio Copy\FLAC\FLAC.EXE
Дополнительные параметры : -6 -V -T "ARTIST=%a" -T "TITLE=%t" -T "ALBUM=%g" -T "DATE=%y" -T "TRACKNUMBER=%n" -T "GENRE=%m" -T "COMMENT=%e" %j--picture="%i"%j %s -o %d

TOC извлечённого CD

Трек | Старт | Длительность | Начальный сектор | Конечный сектор
---------------------------------------------------------------------
1 | 0:00.00 | 3:54.62 | 0 | 17611
2 | 3:54.62 | 5:35.70 | 17612 | 42806
3 | 9:30.57 | 2:26.10 | 42807 | 53766
4 | 11:56.67 | 4:29.17 | 53767 | 73958
5 | 16:26.09 | 4:42.40 | 73959 | 95148
6 | 21:08.49 | 3:43.62 | 95149 | 111935
7 | 24:52.36 | 4:04.02 | 111936 | 130237
8 | 28:56.38 | 4:57.10 | 130238 | 152522
9 | 33:53.48 | 5:00.70 | 152523 | 175092
10 | 38:54.43 | 3:32.17 | 175093 | 191009
11 | 42:26.60 | 3:44.55 | 191010 | 207864
12 | 46:11.40 | 2:08.10 | 207865 | 217474
13 | 48:19.50 | 3:59.17 | 217475 | 235416

Характеристики диапазона извлечения и сообщения об ошибках

Выбранный диапазон

Имя файла F:\Bob Seger\Flac\Bob Seger & The Silver Bullet - Ultimate Hits Rock and Roll Never Forgets (2011)\CD2\Bob Seger & The Silver Bullet Band - Ultimate Hits- Rock and Roll Never Forgets [disk 2].wav

Пиковый уровень 100.0 %
Скорость извлечения 0.5 X
Качество диапазона 100.0 %
CRC копии CE28E3DE
Копирование... OK

Ошибок не произошло

Конец отчёта
=======================
AUDIOCHECKER v2.0 beta (build 457) - by Dester - opdester@freemail.hu
~~~~~~~~~~~~~~~~~~~~~~~~~~~~~~~~~~
-=== НЕ РЕДАКТИРУЙТЕ ЭТОТ ФАЙЛ! ===-

Путь: ...\CD2

1 -=- Bob Seger & The Silver Bullet Band - Ultimate Hits- Rock and Roll Never Forgets [disk 2].flac -=- CDDA (100%)

223113844[/spoiler]
[spoiler=CD2 Track, Spectr, Frequency]
     

[/spoiler]

MP3
Доступно только для пользователей





Чтобы скачать данный материал или оставить комментарий Вам необходимо
зарегистрироваться или войти на сайт под своим логином и паролем.


[ Вход ]

[ Регистрация ]
Не забывайте ставить оценки и комментировать материалы.
Ваше мнение и активность мотивирует к новым публикациям
Категория: Blues | Добавил: igoryok63 | Теги: Bob Seger
Просмотров: 383 | | Рейтинг: 0.0/0
Всего комментариев: 0
Форма входа
Логин:
Пароль:
Поиск в заголовках
Поиск
Ссылки
Copyright MyCorp © 2021