Четверг, 09.12.2021, 02:41 Приветствую Вас Гость | RSS
Категории раздела
Blues [6746]
Jazz [564]
Rock [4377]
Funk, Soul [136]
Fusion, Jazz-Rock [313]
Прочее [725]
Lossless [9247]
Наш баннер
Статистика
Онлайн всего: 2
Гостей: 1
Пользователей: 1
Alex1985

Зарегистрировано: 2324
Новых сегодня: 2
Новых вчера: 4
Новых за неделю: 10
Новых за 30 дней: 50
Сегодня сайт посетили
Сегодня родились

Благотворительная
стимуляция
развития сайта

Z161056227917
R725602230565
U198363340591

Главная » Файлы » Музыка » Rock

Bob Seger & The Silver Bullet Band - Like A Rock (1986) [flac]
20.06.2013, 08:06



Краткое знакомство с альбомом:


Исполнитель: Bob Seger & The Silver Bullet Band
Альбом: Like A Rock
Год выпуска: 1986
Стиль: Classic Rock
Формат: flac (image, cue, log) / mp3
Битрейт: Lossless / 320kbps
Время звучания: 00:43:47
Размер файла: 277,22 Мb / 108,62 Мb
___________________________

Tracklist:
--------------------------------------
01. American Storm - 4:17  
02. Like A Rock - 5:56  
03. Miami - 4:40  
04. The Ring - 5:35  
05. Tightrope - 4:31  
06. The Aftermath - 3:30  
07. Sometimes - 3:31  
08. It's You - 4:03  
09. Somewhere Tonight - 4:25  
10. Fortunate Son - 3:19  

Password in archiv: nota304

[spoiler=Log EAC + AUDIOCHECKER]Exact Audio Copy V1.0 beta 1 from 15. November 2010

Отчёт EAC об извлечении, выполненном 8. июня 2013, 9:23

Bob Seger & The Silver Bullet Band / Like A Rock

Дисковод: HL-DT-STDVDRAM GSA-H44N Adapter: 0 ID: 0

Режим чтения : Достоверность
Использование точного потока : Да
Отключение кэша аудио : Да
Использование указателей C2 : Нет

Коррекция смещения при чтении : 667
Способность читать области Lead-in и Lead-out : Нет
Заполнение пропущенных сэмплов тишиной : Да
Удаление блоков с тишиной в начале и конце : Нет
При вычислениях CRC использовались нулевые сэмплы : Да
Интерфейс : Встроенный Win32-интерфейс для Win NT/2000

Выходной формат : Пользовательский кодировщик
Выбранный битрейт : 1024 kBit/s
Качество : Высокий
Добавление ID3-тега : Нет
Утилита сжатия : C:\Program Files\Exact Audio Copy\FLAC\FLAC.EXE
Дополнительные параметры : -6 -V -T "ARTIST=%a" -T "TITLE=%t" -T "ALBUM=%g" -T "DATE=%y" -T "TRACKNUMBER=%n" -T "GENRE=%m" -T "COMMENT=%e" %j--picture="%i"%j %s -o %d

TOC извлечённого CD

Трек | Старт | Длительность | Начальный сектор | Конечный сектор
---------------------------------------------------------------------
1 | 0:00.00 | 4:19.55 | 0 | 19479
2 | 4:19.55 | 5:58.63 | 19480 | 46392
3 | 10:18.43 | 4:42.64 | 46393 | 67606
4 | 15:01.32 | 5:37.57 | 67607 | 92938
5 | 20:39.14 | 4:33.35 | 92939 | 113448
6 | 25:12.49 | 3:32.69 | 113449 | 129417
7 | 28:45.43 | 3:33.43 | 129418 | 145435
8 | 32:19.11 | 4:05.39 | 145436 | 163849
9 | 36:24.50 | 4:27.41 | 163850 | 183915
10 | 40:52.16 | 3:19.30 | 183916 | 198870

Характеристики диапазона извлечения и сообщения об ошибках

Выбранный диапазон

Имя файла F:\Bob Seger\Flac\Bob Seger & The Silver Bullet Band - Like A Rock (1986)\Bob Seger & The Silver Bullet Band - Like A Rock.wav

Пиковый уровень 87.0 %
Скорость извлечения 0.5 X
Качество диапазона 100.0 %
CRC копии 62A9210B
Копирование... OK

Ошибок не произошло

Конец отчёта
======================
AUDIOCHECKER v2.0 beta (build 457) - by Dester - opdester@freemail.hu
~~~~~~~~~~~~~~~~~~~~~~~~~~~~~~~~~~
-=== НЕ РЕДАКТИРУЙТЕ ЭТОТ ФАЙЛ! ===-

Путь: ...\Bob Seger & The Silver Bullet Band - Like A Rock (1986)

1 -=- Bob Seger & The Silver Bullet Band - Like A Rock.flac -=- CDDA (99%)

105522404[/spoiler]
[spoiler=Track, Spectr, Frequency]
     

[/spoiler]

MP3
Доступно только для пользователей





Чтобы скачать данный материал или оставить комментарий Вам необходимо
зарегистрироваться или войти на сайт под своим логином и паролем.


[ Вход ]

[ Регистрация ]
Не забывайте ставить оценки и комментировать материалы.
Ваше мнение и активность мотивирует к новым публикациям
Категория: Rock | Добавил: igoryok63 | Теги: Bob Seger
Просмотров: 355 | | Рейтинг: 0.0/0
Всего комментариев: 0
Форма входа
Логин:
Пароль:
Поиск в заголовках
Поиск
Ссылки
Copyright MyCorp © 2021