Пятница, 21.01.2022, 22:34 Приветствую Вас Гость | RSS
Категории раздела
Blues [6753]
Jazz [580]
Rock [4399]
Funk, Soul [147]
Fusion, Jazz-Rock [315]
Прочее [729]
Lossless [9288]
Наш баннер
Статистика
Онлайн всего: 2
Гостей: 1
Пользователей: 1
Serg54

Зарегистрировано: 2389
Новых сегодня: 2
Новых вчера: 2
Новых за неделю: 18
Новых за 30 дней: 47
Сегодня сайт посетили
Сегодня родились

Благотворительная
стимуляция
развития сайта

Z161056227917
R725602230565
U198363340591

Главная » Файлы » Музыка » Rock

Bob Seger - Smokin' O.P.'s (1972) [flac]
10.06.2013, 16:06



Краткое знакомство с альбомом:


Исполнитель: Bob Seger
Альбом: Smokin' O.P.'s
Год выпуска: 1972
Стиль: Classic Rock
Формат: flac (image, cue, log) / mp3
Битрейт: Lossless / 320kbps
Время звучания: 00:35:01
Размер файла: 272,62 Мb / 86,54 Мb
___________________________

Tracklist:
--------------------------------------
01. Bo Diddley - 6:19  
02. Love The One You're With - 4:18  
03. If I Were A Carpenter - 3:50  
04. Hummin' Bird - 3:48  
05. Let It Rock - 3:27  
06. Turn On Your Lovelight - 4:46  
07. Jesse James - 3:28  
08. Someday - 2:32  
09. Heavy Music - 2:33

Password in archiv: nota304

[spoiler=Log EAC + AUDIOCHECKER]Exact Audio Copy V1.0 beta 1 from 15. November 2010

Отчёт EAC об извлечении, выполненном 6. июня 2013, 6:30

Bob Seger / Smokin' O.P.'s

Дисковод: HL-DT-STDVDRAM GSA-H44N Adapter: 0 ID: 0

Режим чтения : Достоверность
Использование точного потока : Да
Отключение кэша аудио : Да
Использование указателей C2 : Нет

Коррекция смещения при чтении : 667
Способность читать области Lead-in и Lead-out : Нет
Заполнение пропущенных сэмплов тишиной : Да
Удаление блоков с тишиной в начале и конце : Нет
При вычислениях CRC использовались нулевые сэмплы : Да
Интерфейс : Встроенный Win32-интерфейс для Win NT/2000

Выходной формат : Пользовательский кодировщик
Выбранный битрейт : 1024 kBit/s
Качество : Высокий
Добавление ID3-тега : Нет
Утилита сжатия : C:\Program Files\Exact Audio Copy\FLAC\FLAC.EXE
Дополнительные параметры : -6 -V -T "ARTIST=%a" -T "TITLE=%t" -T "ALBUM=%g" -T "DATE=%y" -T "TRACKNUMBER=%n" -T "GENRE=%m" -T "COMMENT=%e" %j--picture="%i"%j %s -o %d

TOC извлечённого CD

Трек | Старт | Длительность | Начальный сектор | Конечный сектор
---------------------------------------------------------------------
1 | 0:00.00 | 6:19.62 | 0 | 28486
2 | 6:19.62 | 4:19.70 | 28487 | 47981
3 | 10:39.57 | 3:50.55 | 47982 | 65286
4 | 14:30.37 | 3:49.17 | 65287 | 82478
5 | 18:19.54 | 3:27.25 | 82479 | 98028
6 | 21:47.04 | 4:46.25 | 98029 | 119503
7 | 26:33.29 | 3:32.02 | 119504 | 135405
8 | 30:05.31 | 2:36.02 | 135406 | 147107
9 | 32:41.33 | 2:33.32 | 147108 | 158614

Характеристики диапазона извлечения и сообщения об ошибках

Выбранный диапазон

Имя файла F:\Bob Seger\Flac\Bob Seger - Smokin' O.P.'s (1972)\Bob Seger - Smokin' O.P.'s.wav

Пиковый уровень 100.0 %
Скорость извлечения 0.4 X
Качество диапазона 100.0 %
CRC копии 5ABB84FE
Копирование... OK

Ошибок не произошло

Конец отчёта
=======================
AUDIOCHECKER v2.0 beta (build 457) - by Dester - opdester@freemail.hu
~~~~~~~~~~~~~~~~~~~~~~~~~~~~~~~~~~
-=== НЕ РЕДАКТИРУЙТЕ ЭТОТ ФАЙЛ! ===-

Путь: ...\Bob Seger - Smokin' O.P.'s (1972)

1 -=- Bob Seger - Smokin' O.P.'s.flac -=- CDDA (100%)

237258836[/spoiler]
[spoiler=Track, Spectr, Frequency]
     

[/spoiler]


Доступно только для пользователей





Чтобы скачать данный материал или оставить комментарий Вам необходимо
зарегистрироваться или войти на сайт под своим логином и паролем.


[ Вход ]

[ Регистрация ]
Не забывайте ставить оценки и комментировать материалы.
Ваше мнение и активность мотивирует к новым публикациям
Категория: Rock | Добавил: igoryok63 | Теги: Bob Seger
Просмотров: 549 | | Рейтинг: 0.0/0
Всего комментариев: 0
Форма входа
Логин:
Пароль:
Поиск в заголовках
Поиск
Ссылки
Copyright MyCorp © 2022